999
DXF file: 9000_sunshield_dwg.dxf
999
Pro/ENGINEER 2016100 by Parametric Technology Corporation
  0
SECTION
  2
HEADER
  9
$ACADVER
  1
AC1021
  9
$DWGCODEPAGE
  3
ANSI_1252
  9
$EXTMAX
 10
594.0
 20
420.0
 30
0.0
  9
$EXTMIN
 10
0.0
 20
0.0
 30
0.0
  9
$LIMMIN
 10
0.0
 20
0.0
  9
$LIMMAX
 10
594.0
 20
420.0
  9
$VIEWCTR
 10
297.0
 20
210.0
  9
$VIEWSIZE
 40
420.0
  9
$CLAYER
  8
0
  9
$LTSCALE
 40
32.67
  9
$CELTYPE
  6
BYLAYER
  9
$DIMSCALE
 40
1.0
  9
$DIMASZ
 40
3.5
  9
$DIMEXO
 40
0.0
  9
$DIMDLI
 40
22.572
  9
$DIMEXE
 40
3.0
  9
$DIMCEN
 40
5.346
  9
$DIMLFAC
 40
1.0
  9
$DIMBLK
  1
_FILLED
  9
$DIMALT
 70
0
  9
$DIMALTF
 40
0.0393700787
  9
$DIMTXT
 40
3.5
  9
$DIMTOL
 70
1
  9
$DIMLIM
 70
0
  9
$DIMTFAC
 40
1.0
  9
$DIMTP
 40
0.01
  9
$DIMTM
 40
0.01
  9
$DIMGAP
 40
0.625
  9
$DIMDSEP
 70
46
  9
$AUNITS
 70
0
  9
$PDMODE
 70
3
  9
$PDSIZE
 40
0.05
  9
$HANDSEED
  5
588
  9
$TILEMODE
 70
1
  9
$MEASUREMENT
 70
1
  9
$INSUNITS
 70
4
  0
ENDSEC
  0
SECTION
  2
CLASSES
  0
CLASS
  1
ACDBDICTIONARYWDFLT
  2
AcDbDictionaryWithDefault
  3
AutoCAD 2000
 90
0
 91
1
280
0
281
0
  0
CLASS
  1
ACDBPLACEHOLDER
  2
AcDbPlaceHolder
  3
AutoCAD 2000
 90
0
 91
1
280
0
281
0
  0
CLASS
  1
LAYOUT
  2
AcDbLayout
  3
AutoCAD 2000
 90
0
 91
0
280
0
281
0
  0
ENDSEC
  0
SECTION
  2
TABLES
  0
TABLE
  2
VPORT
  5
8
100
AcDbSymbolTable
 70
2
  0
VPORT
  5
1F4
100
AcDbSymbolTableRecord
100
AcDbViewportTableRecord
  2
*ACTIVE
 70
0
 10
0.0
 20
0.0
 11
1.0
 21
1.0
 12
297.0
 22
210.0
 13
0.0
 23
0.0
 14
1.0
 24
1.0
 15
0.0
 25
0.0
 16
0.0
 26
0.0
 36
1.0
 17
0.0
 27
0.0
 37
0.0
 40
420.0
 41
1.4142857143
 42
50.0
 43
0.0
 44
0.0
 50
0.0
 51
0.0
 71
0
 72
100
 73
1
 74
1
 75
0
 76
0
 77
0
 78
0
  0
ENDTAB
  0
TABLE
  2
LTYPE
  5
5
100
AcDbSymbolTable
 70
6
  0
LTYPE
  5
14
100
AcDbSymbolTableRecord
100
AcDbLinetypeTableRecord
  2
BYBLOCK
 70
0
  3

 72
65
 73
0
 40
0.0
  0
LTYPE
  5
15
100
AcDbSymbolTableRecord
100
AcDbLinetypeTableRecord
  2
BYLAYER
 70
0
  3

 72
65
 73
0
 40
0.0
  0
LTYPE
  5
16
100
AcDbSymbolTableRecord
100
AcDbLinetypeTableRecord
  2
CONTINUOUS
 70
64
  3
Solid line
 72
65
 73
0
 40
0.0
  0
LTYPE
  5
1F5
100
AcDbSymbolTableRecord
100
AcDbLinetypeTableRecord
  2
CENTER
 70
64
  3
____ _ ____ _ ____ _ ____ _ ____ _ ____ _ ____
 72
65
 73
4
 40
0.6
 49
0.375
 74
0
 49
-0.075
 74
0
 49
0.075
 74
0
 49
-0.075
 74
0
  0
LTYPE
  5
1F6
100
AcDbSymbolTableRecord
100
AcDbLinetypeTableRecord
  2
HIDDEN
 70
64
  3
- - - - - - - - - - - - - - - - - - - -
 72
65
 73
2
 40
0.2
 49
0.1
 74
0
 49
-0.1
 74
0
  0
LTYPE
  5
1F7
100
AcDbSymbolTableRecord
100
AcDbLinetypeTableRecord
  2
PHANTOM
 70
64
  3
_____ _ _ _____ _ _ _____ _ _ _____
 72
65
 73
6
 40
0.8
 49
0.45
 74
0
 49
-0.05
 74
0
 49
0.1
 74
0
 49
-0.05
 74
0
 49
0.1
 74
0
 49
-0.05
 74
0
  0
LTYPE
  5
1F8
100
AcDbSymbolTableRecord
100
AcDbLinetypeTableRecord
  2
DOT
 70
64
  3
. . . . . . . . . . . . . . . . . . . .
 72
65
 73
2
 40
0.2
 49
0.1
 74
0
 49
-0.1
 74
0
  0
LTYPE
  5
1F9
100
AcDbSymbolTableRecord
100
AcDbLinetypeTableRecord
  2
DASHED
 70
64
  3
- - - - - - - - - - - - - - - - - - - -
 72
65
 73
2
 40
0.2
 49
0.1
 74
0
 49
-0.1
 74
0
  0
ENDTAB
  0
TABLE
  2
LAYER
  5
2
100
AcDbSymbolTable
 70
36
  0
LAYER
  5
10
100
AcDbSymbolTableRecord
100
AcDbLayerTableRecord
  2
0
 70
0
 62
7
  6
CONTINUOUS
370
-3
390
F
  0
LAYER
  5
1FA
100
AcDbSymbolTableRecord
100
AcDbLayerTableRecord
  2
DEFAULT_1
 70
0
 62
7
  6
CENTER
370
-3
390
F
  0
LAYER
  5
1FB
100
AcDbSymbolTableRecord
100
AcDbLayerTableRecord
  2
DEFAULT_2
 70
0
 62
8
  6
HIDDEN
370
-3
390
F
  0
LAYER
  5
1FC
100
AcDbSymbolTableRecord
100
AcDbLayerTableRecord
  2
DEFAULT_3
 70
0
 62
7
  6
PHANTOM
370
-3
390
F
  0
LAYER
  5
1FD
100
AcDbSymbolTableRecord
100
AcDbLayerTableRecord
  2
10_ALL_FEATURES
 70
0
 62
7
  6
CONTINUOUS
370
-3
390
F
  0
LAYER
  5
1FE
100
AcDbSymbolTableRecord
100
AcDbLayerTableRecord
  2
11_ALL_GTOLS
 70
0
 62
7
  6
CONTINUOUS
370
-3
390
F
  0
LAYER
  5
1FF
100
AcDbSymbolTableRecord
100
AcDbLayerTableRecord
  2
6_DEFAULT_AXES
 70
0
 62
7
  6
CONTINUOUS
370
-3
390
F
  0
LAYER
  5
200
100
AcDbSymbolTableRecord
100
AcDbLayerTableRecord
  2
A-GENERAL
 70
0
 62
7
  6
CONTINUOUS
370
-3
390
F
  0
LAYER
  5
201
100
AcDbSymbolTableRecord
100
AcDbLayerTableRecord
  2
A-STP
 70
0
 62
7
  6
CONTINUOUS
370
-3
390
F
  0
LAYER
  5
202
100
AcDbSymbolTableRecord
100
AcDbLayerTableRecord
  2
C-GENERAL
 70
0
 62
7
  6
CONTINUOUS
370
-3
390
F
  0
LAYER
  5
203
100
AcDbSymbolTableRecord
100
AcDbLayerTableRecord
  2
C-STP
 70
0
 62
7
  6
CONTINUOUS
370
-3
390
F
  0
LAYER
  5
204
100
AcDbSymbolTableRecord
100
AcDbLayerTableRecord
  2
COSMETIC
 70
0
 62
7
  6
CONTINUOUS
370
-3
390
F
  0
LAYER
  5
205
100
AcDbSymbolTableRecord
100
AcDbLayerTableRecord
  2
CURVES
 70
0
 62
7
  6
CONTINUOUS
370
-3
390
F
  0
LAYER
  5
206
100
AcDbSymbolTableRecord
100
AcDbLayerTableRecord
  2
E-DATUMTOL
 70
0
 62
7
  6
CONTINUOUS
370
-3
390
F
  0
LAYER
  5
207
100
AcDbSymbolTableRecord
100
AcDbLayerTableRecord
  2
E-GENERAL
 70
0
 62
7
  6
CONTINUOUS
370
-3
390
F
  0
LAYER
  5
208
100
AcDbSymbolTableRecord
100
AcDbLayerTableRecord
  2
E-STP
 70
0
 62
7
  6
CONTINUOUS
370
-3
390
F
  0
LAYER
  5
209
100
AcDbSymbolTableRecord
100
AcDbLayerTableRecord
  2
MERGE
 70
0
 62
7
  6
CONTINUOUS
370
-3
390
F
  0
LAYER
  5
20A
100
AcDbSymbolTableRecord
100
AcDbLayerTableRecord
  2
NOTUSED
 70
0
 62
7
  6
CONTINUOUS
370
-3
390
F
  0
LAYER
  5
20B
100
AcDbSymbolTableRecord
100
AcDbLayerTableRecord
  2
P-GENERAL
 70
0
 62
7
  6
CONTINUOUS
370
-3
390
F
  0
LAYER
  5
20C
100
AcDbSymbolTableRecord
100
AcDbLayerTableRecord
  2
PA-NOTE
 70
0
 62
7
  6
CONTINUOUS
370
-3
390
F
  0
LAYER
  5
20D
100
AcDbSymbolTableRecord
100
AcDbLayerTableRecord
  2
PLANES
 70
0
 62
7
  6
CONTINUOUS
370
-3
390
F
  0
LAYER
  5
20E
100
AcDbSymbolTableRecord
100
AcDbLayerTableRecord
  2
REF
 70
0
 62
7
  6
CONTINUOUS
370
-3
390
F
  0
LAYER
  5
20F
100
AcDbSymbolTableRecord
100
AcDbLayerTableRecord
  2
SKEL
 70
0
 62
7
  6
CONTINUOUS
370
-3
390
F
  0
LAYER
  5
210
100
AcDbSymbolTableRecord
100
AcDbLayerTableRecord
  2
SOLID_GEOM
 70
0
 62
7
  6
CONTINUOUS
370
-3
390
F
  0
LAYER
  5
211
100
AcDbSymbolTableRecord
100
AcDbLayerTableRecord
  2
SURFS
 70
0
 62
7
  6
CONTINUOUS
370
-3
390
F
  0
LAYER
  5
212
100
AcDbSymbolTableRecord
100
AcDbLayerTableRecord
  2
THREAD
 70
0
 62
7
  6
CONTINUOUS
370
-3
390
F
  0
LAYER
  5
213
100
AcDbSymbolTableRecord
100
AcDbLayerTableRecord
  2
UDF
 70
0
 62
7
  6
CONTINUOUS
370
-3
390
F
  0
ENDTAB
  0
TABLE
  2
STYLE
  5
3
100
AcDbSymbolTable
 70
1
  0
STYLE
  5
11
100
AcDbSymbolTableRecord
100
AcDbTextStyleTableRecord
  2
STANDARD
 70
0
 40
0.0
 41
0.8
 50
0.0
 71
0
 42
0.2
  3
txt
  4

  0
STYLE
  5
214
100
AcDbSymbolTableRecord
100
AcDbTextStyleTableRecord
  2
TEXTSTYLE_1
 70
0
 40
0.0
 41
0.8
 50
0.0
 71
0
 42
0.2
  3
gdt
  4

  0
ENDTAB
  0
TABLE
  2
VIEW
  5
6
100
AcDbSymbolTable
 70
0
  0
ENDTAB
  0
TABLE
  2
UCS
  5
7
100
AcDbSymbolTable
 70
0
  0
ENDTAB
  0
TABLE
  2
APPID
  5
9
100
AcDbSymbolTable
 70
1
  0
APPID
  5
215
100
AcDbSymbolTableRecord
100
AcDbRegAppTableRecord
  2
ACAD
 70
0
  0
ENDTAB
  0
TABLE
  2
BLOCK_RECORD
  5
1
100
AcDbSymbolTable
 70
0
  0
BLOCK_RECORD
  5
216
100
AcDbSymbolTableRecord
100
AcDbBlockTableRecord
  2
*Model_Space
  0
BLOCK_RECORD
  5
217
100
AcDbSymbolTableRecord
100
AcDbBlockTableRecord
  2
*Paper_Space
  0
BLOCK_RECORD
  5
218
100
AcDbSymbolTableRecord
100
AcDbBlockTableRecord
  2
_FILLED
  0
BLOCK_RECORD
  5
219
100
AcDbSymbolTableRecord
100
AcDbBlockTableRecord
  2
*D0
  0
BLOCK_RECORD
  5
21A
100
AcDbSymbolTableRecord
100
AcDbBlockTableRecord
  2
*D1
  0
BLOCK_RECORD
  5
21B
100
AcDbSymbolTableRecord
100
AcDbBlockTableRecord
  2
*D2
  0
ENDTAB
  0
TABLE
  2
DIMSTYLE
  5
A
100
AcDbSymbolTable
 70
1
100
AcDbDimStyleTable
 71
0
  0
DIMSTYLE
105
21C
100
AcDbSymbolTableRecord
100
AcDbDimStyleTableRecord
  2
STANDARD
 70
0
  3

  4

 40
1.0
 41
3.5
 42
0.0
 43
0.38
 44
3.0
 45
0.0
 46
0.0
 47
0.01
 48
0.01
140
3.5
141
0.09
142
0.0
143
25.4
144
1.0
145
0.0
146
1.0
147
0.625
 71
1.0
 72
0.0
 73
0
 74
0
 75
0
 76
0
 77
1
 78
8
170
0
171
2
172
0
173
0
174
0
175
0
176
0
177
0
178
5
270
2
271
2
272
2
273
2
274
2
275
0
280
0
281
0
282
0
283
1
284
8
285
0
286
0
287
3
288
0
340
11
278
46
341
218
342
218
343
218
344
218
  0
DIMSTYLE
105
21D
100
AcDbSymbolTableRecord
100
AcDbDimStyleTableRecord
  2
DIMSTYLE_1
 70
0
  3

  4

 40
1.0
 41
3.5
 42
0.0
 43
0.38
 44
3.0
 45
0.0
 46
0.0
 47
0.5
 48
0.5
140
3.5
141
0.09
142
0.0
143
25.4
144
1.0
145
0.0
146
1.0
147
0.875
 71
0.0
 72
0.0
 73
0
 74
0
 75
0
 76
0
 77
1
 78
8
170
0
171
2
172
0
173
0
174
0
175
0
176
0
177
0
178
5
270
2
271
2
272
2
273
2
274
2
275
0
280
0
281
0
282
0
283
1
284
8
285
0
286
0
287
3
288
0
340
11
278
46
341
218
342
218
343
218
344
218
  0
DIMSTYLE
105
21E
100
AcDbSymbolTableRecord
100
AcDbDimStyleTableRecord
  2
DIMSTYLE_2
 70
0
  3

  4

 40
1.0
 41
3.5
 42
0.0
 43
0.38
 44
3.0
 45
0.0
 46
0.0
 47
0.3
 48
0.3
140
3.5
141
0.09
142
0.0
143
25.4
144
1.0
145
0.0
146
1.0
147
0.875
 71
0.0
 72
0.0
 73
0
 74
0
 75
0
 76
0
 77
1
 78
8
170
0
171
2
172
0
173
0
174
0
175
0
176
0
177
0
178
5
270
2
271
2
272
2
273
2
274
2
275
0
280
0
281
0
282
0
283
1
284
8
285
0
286
0
287
3
288
0
340
11
278
46
341
218
342
218
343
218
344
218
  0
ENDTAB
  0
ENDSEC
  0
SECTION
  2
BLOCKS
  0
BLOCK
  5
20
100
AcDbEntity
  8
0
100
AcDbBlockBegin
  2
*Model_Space
 70
0
 10
0.0
 20
0.0
 30
0.0
  3
*Model_Space
  1

  0
ENDBLK
  5
21
100
AcDbEntity
  8
0
100
AcDbBlockEnd
  0
BLOCK
  5
1C
100
AcDbEntity
  8
0
100
AcDbBlockBegin
  2
*Paper_Space
 70
0
 10
0.0
 20
0.0
 30
0.0
  3
*Paper_Space
  1

  0
ENDBLK
  5
1D
100
AcDbEntity
  8
0
100
AcDbBlockEnd
  0
BLOCK
  5
21F
100
AcDbEntity
  8
0
100
AcDbBlockBegin
  2
_FILLED
 70
64
 10
0.0
 20
0.0
  3
_FILLED
  1

  0
SOLID
  5
220
100
AcDbEntity
  8
0
  6
BYBLOCK
 62
0
100
AcDbTrace
 10
0.0
 20
0.0
 11
-1.0
 21
0.1428571429
 12
-1.0
 22
-0.1428571429
 13
-1.0
 23
-0.1428571429
  0
ENDBLK
  5
221
100
AcDbEntity
  8
0
  6
BYBLOCK
 62
0
100
AcDbBlockEnd
  0
BLOCK
  5
222
100
AcDbEntity
  8
0
100
AcDbBlockBegin
 62
2
  6
CONTINUOUS
  2
*D0
 70
65
 10
0.0
 20
0.0
  3
*D0
  1

  0
MTEXT
  5
223
100
AcDbEntity
  8
0
100
AcDbMText
 62
5
  6
CONTINUOUS
  7
STANDARD
 71
2
 72
1
 10
446.6018014804
 20
234.5933300177
 30
0.0
 11
1.0
 21
0.0
 31
0.0
 44
0.9
  1
148.63
 40
3.5
 41
22.125
  0
LINE
  5
224
100
AcDbEntity
  8
0
100
AcDbLine
 62
2
  6
CONTINUOUS
 10
520.9151580555
 20
266.1238655279
 11
520.9151580555
 21
227.2183300177
  0
LINE
  5
225
100
AcDbEntity
  8
0
100
AcDbLine
 62
2
  6
CONTINUOUS
 10
372.2884449053
 20
260.4512574111
 11
372.2884449053
 21
227.2183300177
  0
LINE
  5
226
100
AcDbEntity
  8
0
100
AcDbLine
 62
2
  6
CONTINUOUS
 10
520.9151580555
 20
230.2183300177
 11
446.6018014804
 21
230.2183300177
  0
LINE
  5
227
100
AcDbEntity
  8
0
100
AcDbLine
 62
2
  6
CONTINUOUS
 10
372.2884449053
 20
230.2183300177
 11
446.6018014804
 21
230.2183300177
  0
INSERT
  5
228
100
AcDbEntity
  8
0
100
AcDbBlockReference
 62
2
  6
CONTINUOUS
  2
_FILLED
 10
520.9151580555
 20
230.2183300177
 41
3.5
 42
3.5
 43
3.5
  0
INSERT
  5
229
100
AcDbEntity
  8
0
100
AcDbBlockReference
 62
2
  6
CONTINUOUS
  2
_FILLED
 10
372.2884449053
 20
230.2183300177
 41
3.5
 42
3.5
 43
3.5
 50
180.0
  0
ENDBLK
  5
22A
100
AcDbEntity
  8
0
  6
BYBLOCK
 62
0
100
AcDbBlockEnd
  0
BLOCK
  5
22B
100
AcDbEntity
  8
0
100
AcDbBlockBegin
 62
2
  6
CONTINUOUS
  2
*D1
 70
65
 10
0.0
 20
0.0
  3
*D1
  1

  0
MTEXT
  5
22C
100
AcDbEntity
  8
0
100
AcDbMText
 62
5
  6
CONTINUOUS
  7
STANDARD
 71
2
 72
1
 10
186.5872298663
 20
44.5881067264
 30
0.0
 11
1.0
 21
0.0
 31
0.0
 44
0.9
  1
231.78
 40
3.5
 41
22.125
  0
LINE
  5
22D
100
AcDbEntity
  8
0
100
AcDbLine
 62
2
  6
CONTINUOUS
 10
70.6958684413
 20
90.5311900675
 11
70.6958684413
 21
37.2131067264
  0
LINE
  5
22E
100
AcDbEntity
  8
0
100
AcDbLine
 62
2
  6
CONTINUOUS
 10
302.4785912913
 20
91.0494113984
 11
302.4785912913
 21
37.2131067264
  0
LINE
  5
22F
100
AcDbEntity
  8
0
100
AcDbLine
 62
2
  6
CONTINUOUS
 10
70.6958684413
 20
40.2131067264
 11
186.5872298663
 21
40.2131067264
  0
LINE
  5
230
100
AcDbEntity
  8
0
100
AcDbLine
 62
2
  6
CONTINUOUS
 10
302.4785912913
 20
40.2131067264
 11
186.5872298663
 21
40.2131067264
  0
INSERT
  5
231
100
AcDbEntity
  8
0
100
AcDbBlockReference
 62
2
  6
CONTINUOUS
  2
_FILLED
 10
70.6958684413
 20
40.2131067264
 41
3.5
 42
3.5
 43
3.5
 50
180.0
  0
INSERT
  5
232
100
AcDbEntity
  8
0
100
AcDbBlockReference
 62
2
  6
CONTINUOUS
  2
_FILLED
 10
302.4785912913
 20
40.2131067264
 41
3.5
 42
3.5
 43
3.5
  0
ENDBLK
  5
233
100
AcDbEntity
  8
0
  6
BYBLOCK
 62
0
100
AcDbBlockEnd
  0
BLOCK
  5
234
100
AcDbEntity
  8
0
100
AcDbBlockBegin
 62
2
  6
CONTINUOUS
  2
*D2
 70
65
 10
0.0
 20
0.0
  3
*D2
  1

  0
MTEXT
  5
235
100
AcDbEntity
  8
0
100
AcDbMText
 62
5
  6
CONTINUOUS
  7
STANDARD
 71
2
 72
1
 10
46.0189778957
 20
315.3274502021
 30
0.0
 11
0.0
 21
1.0
 31
0.0
 44
0.9
  1
112.83
 40
3.5
 41
21.0
  0
LINE
  5
236
100
AcDbEntity
  8
0
100
AcDbLine
 62
2
  6
CONTINUOUS
 10
169.9319826273
 20
371.7401482784
 11
47.3939778957
 21
371.7401482784
  0
LINE
  5
237
100
AcDbEntity
  8
0
100
AcDbLine
 62
2
  6
CONTINUOUS
 10
70.2413827189
 20
258.9147521258
 11
47.3939778957
 21
258.9147521258
  0
LINE
  5
238
100
AcDbEntity
  8
0
100
AcDbLine
 62
2
  6
CONTINUOUS
 10
50.3939778957
 20
371.7401482784
 11
50.3939778957
 21
315.3274502021
  0
LINE
  5
239
100
AcDbEntity
  8
0
100
AcDbLine
 62
2
  6
CONTINUOUS
 10
50.3939778957
 20
258.9147521258
 11
50.3939778957
 21
315.3274502021
  0
INSERT
  5
23A
100
AcDbEntity
  8
0
100
AcDbBlockReference
 62
2
  6
CONTINUOUS
  2
_FILLED
 10
50.3939778957
 20
371.7401482784
 41
3.5
 42
3.5
 43
3.5
 50
90.0
  0
INSERT
  5
23B
100
AcDbEntity
  8
0
100
AcDbBlockReference
 62
2
  6
CONTINUOUS
  2
_FILLED
 10
50.3939778957
 20
258.9147521258
 41
3.5
 42
3.5
 43
3.5
 50
270.0
  0
ENDBLK
  5
23C
100
AcDbEntity
  8
0
  6
BYBLOCK
 62
0
100
AcDbBlockEnd
  0
ENDSEC
  0
SECTION
  2
ENTITIES
  0
DIMENSION
  5
23D
100
AcDbEntity
  8
0
100
AcDbDimension
 62
2
  6
CONTINUOUS
  2
*D0
 10
372.2884449053
 20
230.2183300177
 11
446.1018129272
 21
230.2183300177
 70
160
 71
2
 42
148.6267131502
  3
DIMSTYLE_1
100
AcDbAlignedDimension
 13
520.9151580555
 23
266.1238655279
 14
372.2884449053
 24
260.4512574111
 50
180.0
100
AcDbRotatedDimension
  0
DIMENSION
  5
23E
100
AcDbEntity
  8
0
100
AcDbDimension
 62
2
  6
CONTINUOUS
  2
*D1
 10
302.4785912913
 20
40.2131067264
 11
186.0872316284
 21
40.2131067264
 70
160
 71
2
 42
231.78272285
  3
DIMSTYLE_1
100
AcDbAlignedDimension
 13
70.6958684413
 23
90.5311900675
 14
302.4785912913
 24
91.0494113984
100
AcDbRotatedDimension
  0
DIMENSION
  5
23F
100
AcDbEntity
  8
0
100
AcDbDimension
 62
2
  6
CONTINUOUS
  2
*D2
 10
50.3939778957
 20
258.9147521258
 11
50.3939778957
 21
314.827448434
 70
160
 71
2
 42
112.8253961525
  3
DIMSTYLE_2
100
AcDbAlignedDimension
 13
169.9319826273
 23
371.7401482784
 14
70.2413827189
 24
258.9147521258
 50
270.0
100
AcDbRotatedDimension
  0
LINE
  5
240
100
AcDbEntity
  8
0
100
AcDbLine
 62
7
  6
CONTINUOUS
 10
0.0
 20
0.0
 11
0.0
 21
420.0
  0
LINE
  5
241
100
AcDbEntity
  8
0
100
AcDbLine
 62
7
  6
CONTINUOUS
 10
0.0
 20
0.0
 11
594.0
 21
0.0
  0
LINE
  5
242
100
AcDbEntity
  8
0
100
AcDbLine
 62
7
  6
CONTINUOUS
 10
0.0
 20
420.0
 11
594.0
 21
420.0
  0
LINE
  5
243
100
AcDbEntity
  8
0
100
AcDbLine
 62
7
  6
CONTINUOUS
 10
594.0
 20
0.0
 11
594.0
 21
420.0
  0
LINE
  5
244
100
AcDbEntity
  8
10_ALL_FEATURES
100
AcDbLine
 62
9
  6
CONTINUOUS
 10
97.9974394091
 20
310.9637467221
 11
98.015997088
 21
309.7142140723
  0
LINE
  5
245
100
AcDbEntity
  8
10_ALL_FEATURES
100
AcDbLine
 62
7
  6
CONTINUOUS
 10
104.3564570286
 20
321.3340244709
 11
104.3271063299
 21
321.1684465132
  0
LINE
  5
246
100
AcDbEntity
  8
10_ALL_FEATURES
100
AcDbLine
 62
9
  6
CONTINUOUS
 10
101.3249187189
 20
317.9154828869
 11
101.3401842365
 21
316.888185165
  0
LINE
  5
247
100
AcDbEntity
  8
10_ALL_FEATURES
100
AcDbLine
 62
9
  6
CONTINUOUS
 10
104.6656906063
 20
323.9806940984
 11
104.6787862621
 21
323.0999415745
  0
LINE
  5
248
100
AcDbEntity
  8
10_ALL_FEATURES
100
AcDbLine
 62
7
  6
CONTINUOUS
 10
139.3482754108
 20
327.8247701336
 11
139.3469482994
 21
327.8235256875
  0
LINE
  5
249
100
AcDbEntity
  8
10_ALL_FEATURES
100
AcDbLine
 62
7
  6
CONTINUOUS
 10
139.3482754108
 20
327.8247701336
 11
133.8482754108
 21
323.9153656455
  0
LINE
  5
24A
100
AcDbEntity
  8
10_ALL_FEATURES
100
AcDbLine
 62
7
  6
CONTINUOUS
 10
133.8482754108
 20
323.9153656455
 11
133.8495192118
 21
323.91596751
  0
LINE
  5
24B
100
AcDbEntity
  8
10_ALL_FEATURES
100
AcDbLine
 62
7
  6
CONTINUOUS
 10
132.3724188181
 20
322.8540676568
 11
132.5982754108
 21
309.9147521258
  0
LINE
  5
24C
100
AcDbEntity
  8
10_ALL_FEATURES
100
AcDbLine
 62
9
  6
CONTINUOUS
 10
129.4251738854
 20
303.4147521258
 11
129.4251738854
 21
304.3972997194
  0
LINE
  5
24D
100
AcDbEntity
  8
10_ALL_FEATURES
100
AcDbLine
 62
7
  6
CONTINUOUS
 10
133.8482754108
 20
323.9153656455
 11
133.8482754108
 21
313.8629900646
  0
LINE
  5
24E
100
AcDbEntity
  8
10_ALL_FEATURES
100
AcDbLine
 62
9
  6
CONTINUOUS
 10
138.6315879735
 20
303.4147521258
 11
138.6315879735
 21
304.3972997194
  0
LINE
  5
24F
100
AcDbEntity
  8
10_ALL_FEATURES
100
AcDbLine
 62
7
  6
CONTINUOUS
 10
139.3482754108
 20
313.8629900646
 11
139.3482754108
 21
327.8247701336
  0
LINE
  5
250
100
AcDbEntity
  8
10_ALL_FEATURES
100
AcDbLine
 62
7
  6
CONTINUOUS
 10
140.5982754108
 20
309.9147521258
 11
140.9303322849
 21
328.9382777019
  0
LINE
  5
251
100
AcDbEntity
  8
10_ALL_FEATURES
100
AcDbLine
 62
9
  6
CONTINUOUS
 10
141.7817653629
 20
315.9747759925
 11
141.6311310589
 21
307.3449425001
  0
LINE
  5
252
100
AcDbEntity
  8
10_ALL_FEATURES
100
AcDbLine
 62
7
  6
CONTINUOUS
 10
142.7815997455
 20
315.9740133186
 11
142.6309787541
 21
307.3449425001
  0
LINE
  5
253
100
AcDbEntity
  8
10_ALL_FEATURES
100
AcDbLine
 62
7
  6
CONTINUOUS
 10
71.4549851232
 20
258.9147521258
 11
107.3847766019
 21
258.9147521258
  0
LINE
  5
254
100
AcDbEntity
  8
10_ALL_FEATURES
100
AcDbLine
 62
7
  6
CONTINUOUS
 10
265.8117742197
 20
258.9147521258
 11
301.7415462269
 21
258.9147521258
  0
LINE
  5
255
100
AcDbEntity
  8
10_ALL_FEATURES
100
AcDbLine
 62
7
  6
CONTINUOUS
 10
71.1159275915
 20
263.9147521258
 11
81.8596510902
 21
263.9147521258
  0
LINE
  5
256
100
AcDbEntity
  8
10_ALL_FEATURES
100
AcDbLine
 62
7
  6
CONTINUOUS
 10
291.3368997314
 20
263.9147521258
 11
302.0806314645
 21
263.9147521258
  0
LINE
  5
257
100
AcDbEntity
  8
10_ALL_FEATURES
100
AcDbLine
 62
9
  6
CONTINUOUS
 10
88.7200669373
 20
271.4147521258
 11
92.4935351713
 21
271.4147521258
  0
LINE
  5
258
100
AcDbEntity
  8
10_ALL_FEATURES
100
AcDbLine
 62
9
  6
CONTINUOUS
 10
280.7030156503
 20
271.4147521258
 11
284.4764838843
 21
271.4147521258
  0
LINE
  5
259
100
AcDbEntity
  8
10_ALL_FEATURES
100
AcDbLine
 62
7
  6
CONTINUOUS
 10
230.4149337712
 20
315.9750047146
 11
230.5655720675
 21
307.3449425001
  0
LINE
  5
25A
100
AcDbEntity
  8
10_ALL_FEATURES
100
AcDbLine
 62
9
  6
CONTINUOUS
 10
231.4147853583
 20
315.9747817478
 11
231.5654197626
 21
307.3449425001
  0
LINE
  5
25B
100
AcDbEntity
  8
10_ALL_FEATURES
100
AcDbLine
 62
7
  6
CONTINUOUS
 10
232.5982754108
 20
309.9147521258
 11
232.2662185367
 21
328.9382777019
  0
LINE
  5
25C
100
AcDbEntity
  8
10_ALL_FEATURES
100
AcDbLine
 62
7
  6
CONTINUOUS
 10
233.8482754108
 20
313.8629900646
 11
233.8482754108
 21
327.8247701336
  0
LINE
  5
25D
100
AcDbEntity
  8
10_ALL_FEATURES
100
AcDbLine
 62
9
  6
CONTINUOUS
 10
234.5649628481
 20
304.3972997194
 11
234.5649628481
 21
303.4147521258
  0
LINE
  5
25E
100
AcDbEntity
  8
10_ALL_FEATURES
100
AcDbLine
 62
7
  6
CONTINUOUS
 10
239.3482754108
 20
323.9153656455
 11
239.3482754108
 21
313.8629900646
  0
LINE
  5
25F
100
AcDbEntity
  8
10_ALL_FEATURES
100
AcDbLine
 62
7
  6
CONTINUOUS
 10
240.8241320035
 20
322.8540676568
 11
240.5982754108
 21
309.9147521258
  0
LINE
  5
260
100
AcDbEntity
  8
10_ALL_FEATURES
100
AcDbLine
 62
7
  6
CONTINUOUS
 10
138.6315879735
 20
303.4147521258
 11
129.4260449847
 21
303.4147521258
  0
LINE
  5
261
100
AcDbEntity
  8
10_ALL_FEATURES
100
AcDbLine
 62
7
  6
CONTINUOUS
 10
234.5649628481
 20
303.4147521258
 11
243.7718375436
 21
303.4147521258
  0
LINE
  5
262
100
AcDbEntity
  8
10_ALL_FEATURES
100
AcDbLine
 62
9
  6
CONTINUOUS
 10
138.6315879735
 20
304.3972997194
 11
129.4251738854
 21
304.3972997194
  0
LINE
  5
263
100
AcDbEntity
  8
10_ALL_FEATURES
100
AcDbLine
 62
9
  6
CONTINUOUS
 10
234.5649628481
 20
304.3972997194
 11
243.7713744049
 21
304.3972997194
  0
LINE
  5
264
100
AcDbEntity
  8
10_ALL_FEATURES
100
AcDbLine
 62
9
  6
CONTINUOUS
 10
243.7713744049
 20
304.3972997194
 11
243.7713744049
 21
303.4147521258
  0
LINE
  5
265
100
AcDbEntity
  8
10_ALL_FEATURES
100
AcDbLine
 62
9
  6
CONTINUOUS
 10
268.5177645637
 20
323.099941856
 11
268.5308602152
 21
323.9806940984
  0
LINE
  5
266
100
AcDbEntity
  8
10_ALL_FEATURES
100
AcDbLine
 62
9
  6
CONTINUOUS
 10
271.8563665914
 20
316.888185589
 11
271.8716321027
 21
317.9154828869
  0
LINE
  5
267
100
AcDbEntity
  8
10_ALL_FEATURES
100
AcDbLine
 62
9
  6
CONTINUOUS
 10
275.1805537459
 20
309.7142148997
 11
275.1991114124
 21
310.9637467221
  0
LINE
  5
268
100
AcDbEntity
  8
10_ALL_FEATURES
100
AcDbLine
 62
7
  6
CONTINUOUS
 10
239.3482754108
 20
323.9153656455
 11
239.3470316097
 21
323.91596751
  0
LINE
  5
269
100
AcDbEntity
  8
10_ALL_FEATURES
100
AcDbLine
 62
7
  6
CONTINUOUS
 10
233.8482754108
 20
327.8247701336
 11
239.3482754108
 21
323.9153656455
  0
LINE
  5
26A
100
AcDbEntity
  8
10_ALL_FEATURES
100
AcDbLine
 62
7
  6
CONTINUOUS
 10
233.8482754108
 20
327.8247701336
 11
233.8496025221
 21
327.8235256875
  0
LINE
  5
26B
100
AcDbEntity
  8
10_ALL_FEATURES
100
AcDbLine
 62
7
  6
CONTINUOUS
 10
268.8694444917
 20
321.1684465132
 11
268.8399304237
 21
321.3333983809
  0
LINE
  5
26C
100
AcDbEntity
  8
10_ALL_FEATURES
100
AcDbLine
 62
7
  6
CONTINUOUS
 10
405.1611101772
 20
360.9039105944
 11
407.9088596989
 21
362.3770138816
  0
LINE
  5
26D
100
AcDbEntity
  8
10_ALL_FEATURES
100
AcDbLine
 62
7
  6
CONTINUOUS
 10
410.2071420763
 20
363.5410763269
 11
412.8663345528
 21
364.8132778718
  0
LINE
  5
26E
100
AcDbEntity
  8
10_ALL_FEATURES
100
AcDbLine
 62
7
  6
CONTINUOUS
 10
415.248088295
 20
365.8868836238
 11
417.8284807394
 21
366.9819213871
  0
LINE
  5
26F
100
AcDbEntity
  8
10_ALL_FEATURES
100
AcDbLine
 62
7
  6
CONTINUOUS
 10
420.2842766627
 20
367.9601138218
 11
425.0474565996
 21
369.6854431921
  0
LINE
  5
270
100
AcDbEntity
  8
10_ALL_FEATURES
100
AcDbLine
 62
9
  6
CONTINUOUS
 10
372.3040504301
 20
312.4810676732
 11
372.317723229
 21
312.521765005
  0
LINE
  5
271
100
AcDbEntity
  8
10_ALL_FEATURES
100
AcDbLine
 62
9
  6
CONTINUOUS
 10
372.3040504301
 20
312.4810676732
 11
372.3181937988
 21
312.5216067732
  0
LINE
  5
272
100
AcDbEntity
  8
10_ALL_FEATURES
100
AcDbLine
 62
7
  6
CONTINUOUS
 10
372.2884449053
 20
328.0645389765
 11
372.2884449041
 21
314.5071331765
  0
LINE
  5
273
100
AcDbEntity
  8
10_ALL_FEATURES
100
AcDbLine
 62
7
  6
CONTINUOUS
 10
372.2884449053
 20
313.3918840699
 11
372.2884449053
 21
304.9515588271
  0
LINE
  5
274
100
AcDbEntity
  8
10_ALL_FEATURES
100
AcDbLine
 62
7
  6
CONTINUOUS
 10
372.2884449053
 20
304.9147521258
 11
372.2884449053
 21
303.8636834167
  0
LINE
  5
275
100
AcDbEntity
  8
10_ALL_FEATURES
100
AcDbLine
 62
7
  6
CONTINUOUS
 10
372.2884459874
 20
302.41982663
 11
372.2884449053
 21
265.7421440091
  0
LINE
  5
276
100
AcDbEntity
  8
10_ALL_FEATURES
100
AcDbLine
 62
9
  6
CONTINUOUS
 10
372.7884449053
 20
312.4085731369
 11
372.7884449053
 21
305.4147521258
  0
LINE
  5
277
100
AcDbEntity
  8
10_ALL_FEATURES
100
AcDbLine
 62
9
  6
CONTINUOUS
 10
374.6171285716
 20
307.3798419976
 11
374.5914029931
 21
305.4147521256
  0
LINE
  5
278
100
AcDbEntity
  8
10_ALL_FEATURES
100
AcDbLine
 62
9
  6
CONTINUOUS
 10
374.7970691199
 20
317.6886291053
 11
374.6171285716
 21
307.3798419976
  0
LINE
  5
279
100
AcDbEntity
  8
10_ALL_FEATURES
100
AcDbLine
 62
7
  6
CONTINUOUS
 10
375.3246019049
 20
319.2703453971
 11
375.0913268407
 21
305.9060259226
  0
LINE
  5
27A
100
AcDbEntity
  8
10_ALL_FEATURES
100
AcDbLine
 62
9
  6
CONTINUOUS
 10
375.3918124406
 20
319.4660381909
 11
375.1565088976
 21
306.0584348373
  0
LINE
  5
27B
100
AcDbEntity
  8
10_ALL_FEATURES
100
AcDbLine
 62
9
  6
CONTINUOUS
 10
390.6444564967
 20
351.4816250439
 11
390.6444564967
 21
258.9147521258
  0
LINE
  5
27C
100
AcDbEntity
  8
10_ALL_FEATURES
100
AcDbLine
 62
7
  6
CONTINUOUS
 10
405.15353493
 20
360.4699249713
 11
405.1611101772
 21
360.9039105944
  0
LINE
  5
27D
100
AcDbEntity
  8
10_ALL_FEATURES
100
AcDbLine
 62
7
  6
CONTINUOUS
 10
410.1966790218
 20
362.9416483354
 11
410.2071420763
 21
363.5410763269
  0
LINE
  5
27E
100
AcDbEntity
  8
10_ALL_FEATURES
100
AcDbLine
 62
7
  6
CONTINUOUS
 10
415.2347088465
 20
365.1203755337
 11
415.248088295
 21
365.8868836238
  0
LINE
  5
27F
100
AcDbEntity
  8
10_ALL_FEATURES
100
AcDbLine
 62
7
  6
CONTINUOUS
 10
425.0474565996
 20
369.6854431921
 11
425.0474565996
 21
351.6104322592
  0
LINE
  5
280
100
AcDbEntity
  8
10_ALL_FEATURES
100
AcDbLine
 62
7
  6
CONTINUOUS
 10
425.0474565996
 20
351.3247994847
 11
425.0474565996
 21
259.2320166556
  0
LINE
  5
281
100
AcDbEntity
  8
10_ALL_FEATURES
100
AcDbLine
 62
7
  6
CONTINUOUS
 10
420.2699128035
 20
367.1372088777
 11
420.2842766627
 21
367.9601138218
  0
LINE
  5
282
100
AcDbEntity
  8
10_ALL_FEATURES
100
AcDbLine
 62
9
  6
CONTINUOUS
 10
424.1975698447
 20
368.20968345
 11
424.1971280538
 21
368.1971537823
  0
LINE
  5
283
100
AcDbEntity
  8
10_ALL_FEATURES
100
AcDbLine
 62
9
  6
CONTINUOUS
 10
420.921359745
 20
343.3124874654
 11
420.9146646134
 21
343.1686373822
  0
LINE
  5
284
100
AcDbEntity
  8
10_ALL_FEATURES
100
AcDbLine
 62
9
  6
CONTINUOUS
 10
423.1631362889
 20
347.7031947567
 11
423.1571616231
 21
347.5749694219
  0
LINE
  5
285
100
AcDbEntity
  8
10_ALL_FEATURES
100
AcDbLine
 62
9
  6
CONTINUOUS
 10
425.3804662032
 20
351.5710219434
 11
425.3751815846
 21
351.4577049482
  0
LINE
  5
286
100
AcDbEntity
  8
10_ALL_FEATURES
100
AcDbLine
 62
7
  6
CONTINUOUS
 10
434.1793827004
 20
272.416687812
 11
434.1793827004
 21
371.2956481495
  0
LINE
  5
287
100
AcDbEntity
  8
10_ALL_FEATURES
100
AcDbLine
 62
7
  6
CONTINUOUS
 10
375.5320138814
 20
258.9147521258
 11
423.5486387557
 21
258.9147521258
  0
LINE
  5
288
100
AcDbEntity
  8
10_ALL_FEATURES
100
AcDbLine
 62
9
  6
CONTINUOUS
 10
433.6021221567
 20
271.1488896538
 11
433.2866525214
 21
271.6093134449
  0
LINE
  5
289
100
AcDbEntity
  8
10_ALL_FEATURES
100
AcDbLine
 62
9
  6
CONTINUOUS
 10
435.7907835149
 20
272.473458076
 11
435.4910752438
 21
272.9556902488
  0
LINE
  5
28A
100
AcDbEntity
  8
10_ALL_FEATURES
100
AcDbLine
 62
7
  6
CONTINUOUS
 10
446.9082009754
 20
276.7661785613
 11
446.9082009754
 21
371.7401482784
  0
LINE
  5
28B
100
AcDbEntity
  8
10_ALL_FEATURES
100
AcDbLine
 62
7
  6
CONTINUOUS
 10
487.6808465477
 20
263.9147521258
 11
505.9151580555
 21
263.9147521258
  0
LINE
  5
28C
100
AcDbEntity
  8
10_ALL_FEATURES
100
AcDbLine
 62
9
  6
CONTINUOUS
 10
478.3049118626
 20
272.4734551021
 11
478.6046208634
 21
272.9556869527
  0
LINE
  5
28D
100
AcDbEntity
  8
10_ALL_FEATURES
100
AcDbLine
 62
9
  6
CONTINUOUS
 10
480.4935610683
 20
271.1489015805
 11
480.8090307976
 21
271.609326369
  0
LINE
  5
28E
100
AcDbEntity
  8
10_ALL_FEATURES
100
AcDbLine
 62
7
  6
CONTINUOUS
 10
467.1874820143
 20
371.7401482784
 11
467.1874820143
 21
276.7661785613
  0
LINE
  5
28F
100
AcDbEntity
  8
10_ALL_FEATURES
100
AcDbLine
 62
7
  6
CONTINUOUS
 10
479.9163002893
 20
371.2956481495
 11
479.9163002893
 21
272.4166933729
  0
LINE
  5
290
100
AcDbEntity
  8
10_ALL_FEATURES
100
AcDbLine
 62
7
  6
CONTINUOUS
 10
489.0482263901
 20
263.9147521258
 11
489.0482263901
 21
369.6854431921
  0
LINE
  5
291
100
AcDbEntity
  8
10_ALL_FEATURES
100
AcDbLine
 62
7
  6
CONTINUOUS
 10
374.5914029931
 20
305.4147521258
 11
372.7884449053
 21
305.4147521258
  0
LINE
  5
292
100
AcDbEntity
  8
10_ALL_FEATURES
100
AcDbLine
 62
9
  6
CONTINUOUS
 10
374.6171285716
 20
307.3798419976
 11
372.7884449053
 21
307.3798419976
  0
LINE
  5
293
100
AcDbEntity
  8
10_ALL_FEATURES
100
AcDbLine
 62
9
  6
CONTINUOUS
 10
507.4313305404
 20
323.9806940984
 11
507.4098114608
 21
321.6271694203
  0
LINE
  5
294
100
AcDbEntity
  8
10_ALL_FEATURES
100
AcDbLine
 62
7
  6
CONTINUOUS
 10
514.6288531311
 20
307.1527545515
 11
514.6063225799
 21
307.1559021584
  0
LINE
  5
295
100
AcDbEntity
  8
10_ALL_FEATURES
100
AcDbLine
 62
9
  6
CONTINUOUS
 10
508.0376746402
 20
323.6042046887
 11
508.0454587093
 21
321.5574636323
  0
LINE
  5
296
100
AcDbEntity
  8
10_ALL_FEATURES
100
AcDbLine
 62
9
  6
CONTINUOUS
 10
510.2199564299
 20
317.4795307143
 11
510.2291112406
 21
315.068043691
  0
LINE
  5
297
100
AcDbEntity
  8
10_ALL_FEATURES
100
AcDbLine
 62
9
  6
CONTINUOUS
 10
512.4057401471
 20
310.4381338861
 11
512.4170207067
 21
307.4617562611
  0
LINE
  5
298
100
AcDbEntity
  8
10_ALL_FEATURES
100
AcDbLine
 62
9
  6
CONTINUOUS
 10
514.6101046599
 20
307.1526834943
 11
514.6099928893
 21
307.1821742112
  0
LINE
  5
299
100
AcDbEntity
  8
10_ALL_FEATURES
100
AcDbLine
 62
9
  6
CONTINUOUS
 10
509.5992383792
 20
317.9154828869
 11
509.5738927675
 21
315.1477978655
  0
LINE
  5
29A
100
AcDbEntity
  8
10_ALL_FEATURES
100
AcDbLine
 62
9
  6
CONTINUOUS
 10
511.7590561254
 20
310.9637467221
 11
511.7278225406
 21
307.558039962
  0
LINE
  5
29B
100
AcDbEntity
  8
10_ALL_FEATURES
100
AcDbLine
 62
7
  6
CONTINUOUS
 10
520.9151580555
 20
353.3450229719
 11
520.9151580555
 21
271.4147521258
  0
LINE
  5
29C
100
AcDbEntity
  8
10_ALL_FEATURES
100
AcDbLine
 62
7
  6
CONTINUOUS
 10
406.095151275
 20
360.9676403032
 11
406.0969566258
 21
360.9668934034
  0
LINE
  5
29D
100
AcDbEntity
  8
10_ALL_FEATURES
100
AcDbLine
 62
7
  6
CONTINUOUS
 10
420.8850284808
 20
343.3094910561
 11
420.921359745
 21
343.3124874654
  0
LINE
  5
29E
100
AcDbEntity
  8
10_ALL_FEATURES
100
AcDbLine
 62
7
  6
CONTINUOUS
 10
423.1293832041
 20
347.7005482042
 11
423.1631362889
 21
347.7031947567
  0
LINE
  5
29F
100
AcDbEntity
  8
10_ALL_FEATURES
100
AcDbLine
 62
7
  6
CONTINUOUS
 10
411.7444565221
 20
363.6433229799
 11
411.7477248131
 21
363.6421336576
  0
LINE
  5
2A0
100
AcDbEntity
  8
10_ALL_FEATURES
100
AcDbLine
 62
7
  6
CONTINUOUS
 10
510.0776933735
 20
321.3431618816
 11
510.2317195695
 21
321.1684465132
  0
LINE
  5
2A1
100
AcDbEntity
  8
10_ALL_FEATURES
100
AcDbLine
 62
7
  6
CONTINUOUS
 10
417.7009966686
 20
366.0464176334
 11
417.7068150363
 21
366.0445908465
  0
LINE
  5
2A2
100
AcDbEntity
  8
10_ALL_FEATURES
100
AcDbLine
 62
7
  6
CONTINUOUS
 10
405.1611101773
 20
360.9039105999
 11
406.095151275
 21
360.9676403032
  0
LINE
  5
2A3
100
AcDbEntity
  8
10_ALL_FEATURES
100
AcDbLine
 62
7
  6
CONTINUOUS
 10
403.4373025495
 20
359.6881030811
 11
402.9563644448
 21
359.6554688147
  0
LINE
  5
2A4
100
AcDbEntity
  8
10_ALL_FEATURES
100
AcDbLine
 62
7
  6
CONTINUOUS
 10
410.2071421851
 20
363.5410825606
 11
411.7444565221
 21
363.6433229799
  0
LINE
  5
2A5
100
AcDbEntity
  8
10_ALL_FEATURES
100
AcDbLine
 62
7
  6
CONTINUOUS
 10
408.805026112
 20
362.4363508507
 11
407.9088596989
 21
362.3770138816
  0
LINE
  5
2A6
100
AcDbEntity
  8
10_ALL_FEATURES
100
AcDbLine
 62
7
  6
CONTINUOUS
 10
415.248088295
 20
365.8868836238
 11
417.7009966686
 21
366.0464176334
  0
LINE
  5
2A7
100
AcDbEntity
  8
10_ALL_FEATURES
100
AcDbLine
 62
7
  6
CONTINUOUS
 10
414.4221380127
 20
364.9141049973
 11
412.8663344425
 21
364.8132841922
  0
LINE
  5
2A8
100
AcDbEntity
  8
10_ALL_FEATURES
100
AcDbLine
 62
7
  6
CONTINUOUS
 10
420.4565748259
 20
367.1490758261
 11
417.8284858508
 21
366.9819217317
  0
LINE
  5
2A9
100
AcDbEntity
  8
10_ALL_FEATURES
100
AcDbLine
 62
7
  6
CONTINUOUS
 10
420.284276799
 20
367.9601216313
 11
424.1975698447
 21
368.20968345
  0
LINE
  5
2AA
100
AcDbEntity
  8
10_ALL_FEATURES
100
AcDbLine
 62
7
  6
CONTINUOUS
 10
434.1793827004
 20
371.2956481495
 11
425.0474565996
 21
369.6854431921
  0
LINE
  5
2AB
100
AcDbEntity
  8
10_ALL_FEATURES
100
AcDbLine
 62
7
  6
CONTINUOUS
 10
446.9082009754
 20
371.7401482784
 11
434.1793827004
 21
371.2956481495
  0
LINE
  5
2AC
100
AcDbEntity
  8
10_ALL_FEATURES
100
AcDbLine
 62
7
  6
CONTINUOUS
 10
467.1874820143
 20
371.7401482784
 11
459.2123701537
 21
371.7401482784
  0
LINE
  5
2AD
100
AcDbEntity
  8
10_ALL_FEATURES
100
AcDbLine
 62
7
  6
CONTINUOUS
 10
454.8833128354
 20
371.7401482784
 11
446.9082009754
 21
371.7401482784
  0
LINE
  5
2AE
100
AcDbEntity
  8
10_ALL_FEATURES
100
AcDbLine
 62
7
  6
CONTINUOUS
 10
479.9163002893
 20
371.2956481495
 11
467.1874820143
 21
371.7401482784
  0
LINE
  5
2AF
100
AcDbEntity
  8
10_ALL_FEATURES
100
AcDbLine
 62
7
  6
CONTINUOUS
 10
489.0482263901
 20
369.6854431921
 11
479.9163002893
 21
371.2956481495
  0
LINE
  5
2B0
100
AcDbEntity
  8
10_ALL_FEATURES
100
AcDbLine
 62
7
  6
CONTINUOUS
 10
71.1159275915
 20
94.7366912891
 11
71.260281194
 21
93.921077331
  0
LINE
  5
2B1
100
AcDbEntity
  8
10_ALL_FEATURES
100
AcDbLine
 62
7
  6
CONTINUOUS
 10
97.679216845
 20
68.34045059
 11
97.6715219601
 21
68.3523891277
  0
LINE
  5
2B2
100
AcDbEntity
  8
10_ALL_FEATURES
100
AcDbLine
 62
7
  6
CONTINUOUS
 10
97.679216845
 20
68.34045059
 11
97.6719333922
 21
68.3526511109
  0
LINE
  5
2B3
100
AcDbEntity
  8
10_ALL_FEATURES
100
AcDbLine
 62
9
  6
CONTINUOUS
 10
132.7851665396
 20
210.643321929
 11
132.8413441902
 21
210.661956002
  0
LINE
  5
2B4
100
AcDbEntity
  8
10_ALL_FEATURES
100
AcDbLine
 62
9
  6
CONTINUOUS
 10
132.7848665105
 20
210.6442793109
 11
132.8413441902
 21
210.661956002
  0
LINE
  5
2B5
100
AcDbEntity
  8
10_ALL_FEATURES
100
AcDbLine
 62
7
  6
CONTINUOUS
 10
284.4764838843
 20
62.0541456655
 11
88.7200669373
 21
62.0541456655
  0
LINE
  5
2B6
100
AcDbEntity
  8
10_ALL_FEATURES
100
AcDbLine
 62
7
  6
CONTINUOUS
 10
104.35932939
 20
72.8964825643
 11
104.3271063299
 21
72.7375841515
  0
LINE
  5
2B7
100
AcDbEntity
  8
10_ALL_FEATURES
100
AcDbLine
 62
7
  6
CONTINUOUS
 10
124.0982371124
 20
157.9401298539
 11
124.1424845425
 21
157.7876235197
  0
LINE
  5
2B8
100
AcDbEntity
  8
10_ALL_FEATURES
100
AcDbLine
 62
9
  6
CONTINUOUS
 10
138.5969877247
 20
207.8779768803
 11
138.5969877247
 21
210.6808588157
  0
LINE
  5
2B9
100
AcDbEntity
  8
10_ALL_FEATURES
100
AcDbLine
 62
9
  6
CONTINUOUS
 10
140.5966830222
 20
208.3521751494
 11
140.5966830222
 21
210.1808588157
  0
LINE
  5
2BA
100
AcDbEntity
  8
10_ALL_FEATURES
100
AcDbLine
 62
7
  6
CONTINUOUS
 10
71.260281194
 20
93.921077331
 11
301.9362696276
 21
93.921077331
  0
LINE
  5
2BB
100
AcDbEntity
  8
10_ALL_FEATURES
100
AcDbLine
 62
7
  6
CONTINUOUS
 10
132.9146977787
 20
210.1808588157
 11
132.8413441287
 21
210.6619561991
  0
LINE
  5
2BC
100
AcDbEntity
  8
10_ALL_FEATURES
100
AcDbLine
 62
9
  6
CONTINUOUS
 10
196.2557476115
 20
177.3907880447
 11
196.1984511856
 21
177.3732707694
  0
LINE
  5
2BD
100
AcDbEntity
  8
10_ALL_FEATURES
100
AcDbLine
 62
7
  6
CONTINUOUS
 10
302.511834269
 20
103.0530034317
 11
70.6847174402
 21
103.0530034317
  0
LINE
  5
2BE
100
AcDbEntity
  8
10_ALL_FEATURES
100
AcDbLine
 62
9
  6
CONTINUOUS
 10
198.3116351519
 20
172.1601594483
 11
198.2566900461
 21
172.1401610652
  0
LINE
  5
2BF
100
AcDbEntity
  8
10_ALL_FEATURES
100
AcDbLine
 62
9
  6
CONTINUOUS
 10
200.3900083364
 20
166.5685696169
 11
200.3362379043
 21
166.5489987801
  0
LINE
  5
2C0
100
AcDbEntity
  8
10_ALL_FEATURES
100
AcDbLine
 62
7
  6
CONTINUOUS
 10
302.1864940508
 20
115.7818217067
 11
71.0100567708
 21
115.7818217067
  0
LINE
  5
2C1
100
AcDbEntity
  8
10_ALL_FEATURES
100
AcDbLine
 62
9
  6
CONTINUOUS
 10
127.6189188985
 20
208.8213368464
 11
127.7934360499
 21
208.3779007279
  0
LINE
  5
2C2
100
AcDbEntity
  8
10_ALL_FEATURES
100
AcDbLine
 62
9
  6
CONTINUOUS
 10
232.5998677994
 20
208.3521751494
 11
232.4198998411
 21
208.1722346011
  0
LINE
  5
2C3
100
AcDbEntity
  8
10_ALL_FEATURES
100
AcDbLine
 62
9
  6
CONTINUOUS
 10
233.0997916238
 20
207.8522513018
 11
232.8922105225
 21
207.6447018161
  0
LINE
  5
2C4
100
AcDbEntity
  8
10_ALL_FEATURES
100
AcDbLine
 62
9
  6
CONTINUOUS
 10
202.5968977901
 20
160.611486841
 11
202.5441369015
 21
160.592283448
  0
LINE
  5
2C5
100
AcDbEntity
  8
10_ALL_FEATURES
100
AcDbLine
 62
7
  6
CONTINUOUS
 10
71.0100567708
 20
136.0611027456
 11
302.1864940508
 21
136.0611027456
  0
LINE
  5
2C6
100
AcDbEntity
  8
10_ALL_FEATURES
100
AcDbLine
 62
9
  6
CONTINUOUS
 10
139.6632352611
 20
180.6098490226
 11
139.7071401191
 21
180.5586913833
  0
LINE
  5
2C7
100
AcDbEntity
  8
10_ALL_FEATURES
100
AcDbLine
 62
9
  6
CONTINUOUS
 10
136.5111458221
 20
184.508095932
 11
136.5570924183
 21
184.4543524569
  0
LINE
  5
2C8
100
AcDbEntity
  8
10_ALL_FEATURES
100
AcDbLine
 62
9
  6
CONTINUOUS
 10
133.3646142984
 20
188.3991162883
 11
133.4131283539
 21
188.3421777965
  0
LINE
  5
2C9
100
AcDbEntity
  8
10_ALL_FEATURES
100
AcDbLine
 62
9
  6
CONTINUOUS
 10
172.4750204695
 20
162.5127288951
 11
172.4952708074
 21
162.4602632617
  0
LINE
  5
2CA
100
AcDbEntity
  8
10_ALL_FEATURES
100
AcDbLine
 62
9
  6
CONTINUOUS
 10
174.9702714814
 20
168.5471657083
 11
174.9853641655
 21
168.4918392498
  0
LINE
  5
2CB
100
AcDbEntity
  8
10_ALL_FEATURES
100
AcDbLine
 62
9
  6
CONTINUOUS
 10
177.2509717113
 20
174.164277609
 11
177.2621257885
 21
174.1067097686
  0
LINE
  5
2CC
100
AcDbEntity
  8
10_ALL_FEATURES
100
AcDbLine
 62
9
  6
CONTINUOUS
 10
179.3969124576
 20
179.5320011715
 11
179.4049198924
 21
179.472389831
  0
LINE
  5
2CD
100
AcDbEntity
  8
10_ALL_FEATURES
100
AcDbLine
 62
9
  6
CONTINUOUS
 10
193.6871743464
 20
179.5469702283
 11
193.6792918867
 21
179.487341658
  0
LINE
  5
2CE
100
AcDbEntity
  8
10_ALL_FEATURES
100
AcDbLine
 62
9
  6
CONTINUOUS
 10
195.9455791103
 20
174.164277609
 11
195.9344250331
 21
174.1067097686
  0
LINE
  5
2CF
100
AcDbEntity
  8
10_ALL_FEATURES
100
AcDbLine
 62
9
  6
CONTINUOUS
 10
198.2262793401
 20
168.5471657083
 11
198.2111866561
 21
168.4918392498
  0
LINE
  5
2D0
100
AcDbEntity
  8
10_ALL_FEATURES
100
AcDbLine
 62
9
  6
CONTINUOUS
 10
200.7215303521
 20
162.5127288951
 11
200.7012800142
 21
162.4602632617
  0
LINE
  5
2D1
100
AcDbEntity
  8
10_ALL_FEATURES
100
AcDbLine
 62
9
  6
CONTINUOUS
 10
239.8319365232
 20
188.3991162883
 11
239.7834224677
 21
188.3421777965
  0
LINE
  5
2D2
100
AcDbEntity
  8
10_ALL_FEATURES
100
AcDbLine
 62
9
  6
CONTINUOUS
 10
236.6854049995
 20
184.508095932
 11
236.6394584033
 21
184.4543524569
  0
LINE
  5
2D3
100
AcDbEntity
  8
10_ALL_FEATURES
100
AcDbLine
 62
9
  6
CONTINUOUS
 10
233.5333155605
 20
180.6098490226
 11
233.4894107025
 21
180.5586913833
  0
LINE
  5
2D4
100
AcDbEntity
  8
10_ALL_FEATURES
100
AcDbLine
 62
7
  6
CONTINUOUS
 10
70.6847165526
 20
148.7899210206
 11
302.5118333813
 21
148.7899210206
  0
LINE
  5
2D5
100
AcDbEntity
  8
10_ALL_FEATURES
100
AcDbLine
 62
9
  6
CONTINUOUS
 10
249.8008680442
 20
160.4680609091
 11
249.8002817356
 21
160.4680001533
  0
LINE
  5
2D6
100
AcDbEntity
  8
10_ALL_FEATURES
100
AcDbLine
 62
9
  6
CONTINUOUS
 10
254.2720247505
 20
162.73679433
 11
254.2713841927
 21
162.73672904
  0
LINE
  5
2D7
100
AcDbEntity
  8
10_ALL_FEATURES
100
AcDbLine
 62
9
  6
CONTINUOUS
 10
258.7329601074
 20
165.004817492
 11
258.7322551368
 21
165.0047466669
  0
LINE
  5
2D8
100
AcDbEntity
  8
10_ALL_FEATURES
100
AcDbLine
 62
7
  6
CONTINUOUS
 10
302.2467918215
 20
157.9218471214
 11
249.1613282734
 21
157.9218471214
  0
LINE
  5
2D9
100
AcDbEntity
  8
10_ALL_FEATURES
100
AcDbLine
 62
7
  6
CONTINUOUS
 10
248.7143521803
 20
157.9218471214
 11
124.4821986413
 21
157.9218471214
  0
LINE
  5
2DA
100
AcDbEntity
  8
10_ALL_FEATURES
100
AcDbLine
 62
7
  6
CONTINUOUS
 10
124.0352225482
 20
157.9218471214
 11
70.9497578765
 21
157.9218471214
  0
LINE
  5
2DB
100
AcDbEntity
  8
10_ALL_FEATURES
100
AcDbLine
 62
9
  6
CONTINUOUS
 10
114.464295685
 20
165.0047466669
 11
114.3853855029
 21
165.0126670637
  0
LINE
  5
2DC
100
AcDbEntity
  8
10_ALL_FEATURES
100
AcDbLine
 62
9
  6
CONTINUOUS
 10
114.4558842334
 20
164.9280742602
 11
114.3770235276
 21
164.9360241294
  0
LINE
  5
2DD
100
AcDbEntity
  8
10_ALL_FEATURES
100
AcDbLine
 62
9
  6
CONTINUOUS
 10
118.9251666291
 20
162.73672904
 11
118.8502986699
 21
162.7443530437
  0
LINE
  5
2DE
100
AcDbEntity
  8
10_ALL_FEATURES
100
AcDbLine
 62
9
  6
CONTINUOUS
 10
118.9167044131
 20
162.6600210303
 11
118.8418802451
 21
162.6676754121
  0
LINE
  5
2DF
100
AcDbEntity
  8
10_ALL_FEATURES
100
AcDbLine
 62
9
  6
CONTINUOUS
 10
123.3962690862
 20
160.4680001533
 11
123.3246764895
 21
160.4754119734
  0
LINE
  5
2E0
100
AcDbEntity
  8
10_ALL_FEATURES
100
AcDbLine
 62
9
  6
CONTINUOUS
 10
123.3877268791
 20
160.3912488393
 11
123.3161741864
 21
160.3986922057
  0
LINE
  5
2E1
100
AcDbEntity
  8
10_ALL_FEATURES
100
AcDbLine
 62
9
  6
CONTINUOUS
 10
170.5996530315
 20
160.611486841
 11
170.6524139201
 21
160.592283448
  0
LINE
  5
2E2
100
AcDbEntity
  8
10_ALL_FEATURES
100
AcDbLine
 62
9
  6
CONTINUOUS
 10
140.3043402991
 20
207.6447018161
 11
140.0967591978
 21
207.8522513018
  0
LINE
  5
2E3
100
AcDbEntity
  8
10_ALL_FEATURES
100
AcDbLine
 62
9
  6
CONTINUOUS
 10
140.7766509805
 20
208.1722346011
 11
140.5966830222
 21
208.3521751494
  0
LINE
  5
2E4
100
AcDbEntity
  8
10_ALL_FEATURES
100
AcDbLine
 62
9
  6
CONTINUOUS
 10
245.5776319232
 20
208.8213368463
 11
245.4031147717
 21
208.3779007279
  0
LINE
  5
2E5
100
AcDbEntity
  8
10_ALL_FEATURES
100
AcDbLine
 62
9
  6
CONTINUOUS
 10
172.8065424851
 20
166.5685696169
 11
172.8603129173
 21
166.5489987801
  0
LINE
  5
2E6
100
AcDbEntity
  8
10_ALL_FEATURES
100
AcDbLine
 62
9
  6
CONTINUOUS
 10
174.8849156697
 20
172.1601594483
 11
174.9398607755
 21
172.1401610652
  0
LINE
  5
2E7
100
AcDbEntity
  8
10_ALL_FEATURES
100
AcDbLine
 62
9
  6
CONTINUOUS
 10
176.8877697538
 20
177.5305600954
 11
176.9440882324
 21
177.5100618455
  0
LINE
  5
2E8
100
AcDbEntity
  8
10_ALL_FEATURES
100
AcDbLine
 62
9
  6
CONTINUOUS
 10
232.5998677994
 20
210.1808588157
 11
232.5998677994
 21
208.3521751494
  0
LINE
  5
2E9
100
AcDbEntity
  8
10_ALL_FEATURES
100
AcDbLine
 62
9
  6
CONTINUOUS
 10
234.5995630969
 20
210.6808588157
 11
234.5995630969
 21
207.8779768803
  0
LINE
  5
2EA
100
AcDbEntity
  8
10_ALL_FEATURES
100
AcDbLine
 62
7
  6
CONTINUOUS
 10
240.2818530429
 20
210.1808588157
 11
240.3552055464
 21
210.6619561736
  0
LINE
  5
2EB
100
AcDbEntity
  8
10_ALL_FEATURES
100
AcDbLine
 62
7
  6
CONTINUOUS
 10
249.0540662791
 20
157.7876235197
 11
249.0983137092
 21
157.9401298539
  0
LINE
  5
2EC
100
AcDbEntity
  8
10_ALL_FEATURES
100
AcDbLine
 62
9
  6
CONTINUOUS
 10
284.0369468458
 20
192.3248472243
 11
89.1596039758
 21
192.3248472243
  0
LINE
  5
2ED
100
AcDbEntity
  8
10_ALL_FEATURES
100
AcDbLine
 62
9
  6
CONTINUOUS
 10
246.981836839
 20
207.8779768803
 11
234.5995630969
 21
207.8779768803
  0
LINE
  5
2EE
100
AcDbEntity
  8
10_ALL_FEATURES
100
AcDbLine
 62
9
  6
CONTINUOUS
 10
138.5969877247
 20
207.8779768803
 11
126.2147139825
 21
207.8779768803
  0
LINE
  5
2EF
100
AcDbEntity
  8
10_ALL_FEATURES
100
AcDbLine
 62
9
  6
CONTINUOUS
 10
245.4031147717
 20
208.3779007279
 11
234.5995630969
 21
208.3779007279
  0
LINE
  5
2F0
100
AcDbEntity
  8
10_ALL_FEATURES
100
AcDbLine
 62
9
  6
CONTINUOUS
 10
138.5969877247
 20
208.3779007279
 11
127.7934360499
 21
208.3779007279
  0
LINE
  5
2F1
100
AcDbEntity
  8
10_ALL_FEATURES
100
AcDbLine
 62
7
  6
CONTINUOUS
 10
268.8694444917
 20
72.7375841515
 11
268.8370466027
 21
72.8972119765
  0
LINE
  5
2F2
100
AcDbEntity
  8
10_ALL_FEATURES
100
AcDbLine
 62
9
  6
CONTINUOUS
 10
140.6844732216
 20
210.1808588157
 11
132.9146977787
 21
210.1808588157
  0
LINE
  5
2F3
100
AcDbEntity
  8
10_ALL_FEATURES
100
AcDbLine
 62
9
  6
CONTINUOUS
 10
232.5120776
 20
210.1808588157
 11
240.2818530429
 21
210.1808588157
  0
LINE
  5
2F4
100
AcDbEntity
  8
10_ALL_FEATURES
100
AcDbLine
 62
7
  6
CONTINUOUS
 10
259.798710459
 20
210.6808588157
 11
242.682663719
 21
210.6808568594
  0
LINE
  5
2F5
100
AcDbEntity
  8
10_ALL_FEATURES
100
AcDbLine
 62
7
  6
CONTINUOUS
 10
130.5139766412
 20
210.6808577336
 11
113.3978403626
 21
210.6808588157
  0
LINE
  5
2F6
100
AcDbEntity
  8
10_ALL_FEATURES
100
AcDbLine
 62
7
  6
CONTINUOUS
 10
229.3387540079
 20
210.6808563893
 11
143.857729688
 21
210.6808588169
  0
LINE
  5
2F7
100
AcDbEntity
  8
10_ALL_FEATURES
100
AcDbLine
 62
7
  6
CONTINUOUS
 10
241.4005998521
 20
210.6808588157
 11
240.4238352314
 21
210.6808588157
  0
LINE
  5
2F8
100
AcDbEntity
  8
10_ALL_FEATURES
100
AcDbLine
 62
7
  6
CONTINUOUS
 10
232.0098469115
 20
210.6808588157
 11
230.8776387215
 21
210.6808588157
  0
LINE
  5
2F9
100
AcDbEntity
  8
10_ALL_FEATURES
100
AcDbLine
 62
7
  6
CONTINUOUS
 10
142.3189194856
 20
210.6808588157
 11
141.1867039101
 21
210.6808588157
  0
LINE
  5
2FA
100
AcDbEntity
  8
10_ALL_FEATURES
100
AcDbLine
 62
7
  6
CONTINUOUS
 10
141.0966068466
 20
210.6808588157
 11
132.8413441902
 21
210.6808588157
  0
LINE
  5
2FB
100
AcDbEntity
  8
10_ALL_FEATURES
100
AcDbLine
 62
7
  6
CONTINUOUS
 10
132.7727155902
 20
210.6808588157
 11
131.7959514271
 21
210.6808588157
  0
LINE
  5
2FC
100
AcDbEntity
  8
10_ALL_FEATURES
100
AcDbLine
 62
7
  6
CONTINUOUS
 10
232.099943975
 20
210.6808588157
 11
240.3552055786
 21
210.6808588157
  0
LINE
  5
2FD
100
AcDbEntity
  8
10_ALL_FEATURES
100
AcDbLine
 62
9
  6
CONTINUOUS
 10
240.3552055786
 20
210.6619562769
 11
240.4118727323
 21
210.6442201858
  0
LINE
  5
2FE
100
AcDbEntity
  8
10_ALL_FEATURES
100
AcDbLine
 62
9
  6
CONTINUOUS
 10
240.3552055786
 20
210.6619562769
 11
240.411658889
 21
210.6435378256
  0
LINE
  5
2FF
100
AcDbEntity
  8
10_ALL_FEATURES
100
AcDbLine
 62
7
  6
CONTINUOUS
 10
275.5246174294
 20
68.3526511109
 11
275.5173339766
 21
68.34045059
  0
LINE
  5
300
100
AcDbEntity
  8
10_ALL_FEATURES
100
AcDbLine
 62
7
  6
CONTINUOUS
 10
275.5250288615
 20
68.3523891277
 11
275.5173339766
 21
68.34045059
  0
LINE
  5
301
100
AcDbEntity
  8
10_ALL_FEATURES
100
AcDbLine
 62
7
  6
CONTINUOUS
 10
301.9362696276
 20
93.921077331
 11
302.0806314645
 21
94.7367378148
  0
ARC
  5
302
100
AcDbEntity
  8
10_ALL_FEATURES
100
AcDbCircle
 62
7
  6
CONTINUOUS
 10
-1366.6645568557
 20
262.2651194628
 40
1669.1693092266
100
AcDbArc
 50
0.1265229937
 51
0.3207497959
  0
ARC
  5
303
100
AcDbEntity
  8
10_ALL_FEATURES
100
AcDbCircle
 62
7
  6
CONTINUOUS
 10
-1094.4393015668
 20
262.9289461631
 40
1396.9432451081
100
AcDbArc
 50
359.9422029546
 51
0.123640398
  0
ARC
  5
304
100
AcDbEntity
  8
10_ALL_FEATURES
100
AcDbCircle
 62
7
  6
CONTINUOUS
 10
15.0106074345
 20
274.2684565612
 40
262.5738941743
100
AcDbArc
 50
7.200985881
 51
7.9176964753
  0
ARC
  5
305
100
AcDbEntity
  8
10_ALL_FEATURES
100
AcDbCircle
 62
7
  6
CONTINUOUS
 10
46.4534410817
 20
280.3747901836
 40
228.3415756913
100
AcDbArc
 50
8.6741178227
 51
9.351840385
  0
ARC
  5
306
100
AcDbEntity
  8
10_ALL_FEATURES
100
AcDbCircle
 62
7
  6
CONTINUOUS
 10
186.5783047434
 20
255.670073231
 40
86.3247773004
100
AcDbArc
 50
121.9239658973
 51
128.8975394221
  0
ARC
  5
307
100
AcDbEntity
  8
10_ALL_FEATURES
100
AcDbCircle
 62
7
  6
CONTINUOUS
 10
186.5663307474
 20
256.288331455
 40
77.4434798382
100
AcDbArc
 50
124.5550014233
 51
126.2694200082
  0
ARC
  5
308
100
AcDbEntity
  8
10_ALL_FEATURES
100
AcDbCircle
 62
7
  6
CONTINUOUS
 10
186.516719054
 20
256.3446130221
 40
77.3683110604
100
AcDbArc
 50
134.2132592681
 51
142.3114368692
  0
ARC
  5
309
100
AcDbEntity
  8
10_ALL_FEATURES
100
AcDbCircle
 62
7
  6
CONTINUOUS
 10
-2251.0767273342
 20
297.5947138178
 40
2485.1101878751
100
AcDbArc
 50
0.383392673
 51
0.6969614718
  0
ARC
  5
30A
100
AcDbEntity
  8
10_ALL_FEATURES
100
AcDbCircle
 62
7
  6
CONTINUOUS
 10
-2066.5581414735
 20
297.494561266
 40
2200.5662825533
100
AcDbArc
 50
0.4332451455
 51
0.6879463042
  0
ARC
  5
30B
100
AcDbEntity
  8
10_ALL_FEATURES
100
AcDbCircle
 62
7
  6
CONTINUOUS
 10
73.0981771765
 20
286.5611619471
 40
198.8065639983
100
AcDbArc
 50
10.0733055122
 51
10.7385127715
  0
ARC
  5
30C
100
AcDbEntity
  8
10_ALL_FEATURES
100
AcDbCircle
 62
9
  6
CONTINUOUS
 10
108.3760635704
 20
302.940311196
 40
32.8417846646
100
AcDbArc
 50
19.425738526
 51
20.0942547804
  0
ARC
  5
30D
100
AcDbEntity
  8
10_ALL_FEATURES
100
AcDbCircle
 62
9
  6
CONTINUOUS
 10
164.5853320739
 20
303.0237894773
 40
32.5922524794
100
AcDbArc
 50
160.0690022274
 51
160.5751705157
  0
ARC
  5
30E
100
AcDbEntity
  8
10_ALL_FEATURES
100
AcDbCircle
 62
9
  6
CONTINUOUS
 10
108.8093710189
 20
303.5825474091
 40
31.8769806804
100
AcDbArc
 50
18.4957856073
 51
19.1684745167
  0
ARC
  5
30F
100
AcDbEntity
  8
10_ALL_FEATURES
100
AcDbCircle
 62
9
  6
CONTINUOUS
 10
164.1987198493
 20
303.6460359828
 40
31.6781144619
100
AcDbArc
 50
160.976939831
 51
161.5049796898
  0
ARC
  5
310
100
AcDbEntity
  8
10_ALL_FEATURES
100
AcDbCircle
 62
7
  6
CONTINUOUS
 10
136.598275412
 20
309.9142529136
 40
4.5006064081
100
AcDbArc
 50
57.1466610105
 51
122.8533389211
  0
ARC
  5
311
100
AcDbEntity
  8
10_ALL_FEATURES
100
AcDbCircle
 62
7
  6
CONTINUOUS
 10
136.5982754108
 20
309.9147521258
 40
4.0
100
AcDbArc
 50
180.0
 51
360.0
  0
ARC
  5
312
100
AcDbEntity
  8
10_ALL_FEATURES
100
AcDbCircle
 62
7
  6
CONTINUOUS
 10
138.6315879735
 20
307.4147521258
 40
4.0
100
AcDbArc
 50
270.0
 51
359.0
  0
ARC
  5
313
100
AcDbEntity
  8
10_ALL_FEATURES
100
AcDbCircle
 62
9
  6
CONTINUOUS
 10
138.6315874977
 20
307.3973002035
 40
3.0000004841
100
AcDbArc
 50
270.0000090859
 51
358.9999909141
  0
ARC
  5
314
100
AcDbEntity
  8
10_ALL_FEATURES
100
AcDbCircle
 62
7
  6
CONTINUOUS
 10
94.7945803698
 20
307.5473988246
 40
2.9115067743
100
AcDbArc
 50
352.2097830461
 51
352.793730854
  0
ARC
  5
315
100
AcDbEntity
  8
10_ALL_FEATURES
100
AcDbCircle
 62
7
  6
CONTINUOUS
 10
139.1483364394
 20
313.8629645996
 40
0.1999401727
100
AcDbArc
 50
237.1264110609
 51
0.0072974059
  0
ARC
  5
316
100
AcDbEntity
  8
10_ALL_FEATURES
100
AcDbCircle
 62
7
  6
CONTINUOUS
 10
134.0482143431
 20
313.8629645891
 40
0.1999401602
100
AcDbArc
 50
179.9926995715
 51
302.8736021181
  0
ARC
  5
317
100
AcDbEntity
  8
10_ALL_FEATURES
100
AcDbCircle
 62
7
  6
CONTINUOUS
 10
1766.073359577
 20
262.1646762042
 40
1695.3817113518
100
AcDbArc
 50
179.6808143976
 51
179.8720392109
  0
ARC
  5
318
100
AcDbEntity
  8
10_ALL_FEATURES
100
AcDbCircle
 62
7
  6
CONTINUOUS
 10
1445.014895387
 20
262.9413757903
 40
1374.3223226539
100
AcDbArc
 50
179.8748097573
 51
180.0592666225
  0
ARC
  5
319
100
AcDbEntity
  8
10_ALL_FEATURES
100
AcDbCircle
 62
7
  6
CONTINUOUS
 10
354.8367062354
 20
274.7129214037
 40
259.1953610392
100
AcDbArc
 50
172.0776324097
 51
172.803685234
  0
ARC
  5
31A
100
AcDbEntity
  8
10_ALL_FEATURES
100
AcDbCircle
 62
7
  6
CONTINUOUS
 10
323.8855447242
 20
280.8280476003
 40
225.4483381375
100
AcDbArc
 50
170.6438108678
 51
171.3302309245
  0
ARC
  5
31B
100
AcDbEntity
  8
10_ALL_FEATURES
100
AcDbCircle
 62
7
  6
CONTINUOUS
 10
186.5982754108
 20
253.9147521258
 40
117.8253961525
100
AcDbArc
 50
11.1829909606
 51
168.8170090394
  0
ARC
  5
31C
100
AcDbEntity
  8
10_ALL_FEATURES
100
AcDbCircle
 62
7
  6
CONTINUOUS
 10
186.5982754108
 20
253.9147521258
 40
117.3808960237
100
AcDbArc
 50
9.0689567939
 51
170.9310404576
  0
ARC
  5
31D
100
AcDbEntity
  8
10_ALL_FEATURES
100
AcDbCircle
 62
7
  6
CONTINUOUS
 10
186.5982754108
 20
253.9147521258
 40
115.7706910663
100
AcDbArc
 50
4.9552496842
 51
175.0447503158
  0
ARC
  5
31E
100
AcDbEntity
  8
10_ALL_FEATURES
100
AcDbCircle
 62
7
  6
CONTINUOUS
 10
186.5982754108
 20
253.9147521258
 40
112.8562538263
100
AcDbArc
 50
2.7620743437
 51
5.0867823601
  0
ARC
  5
31F
100
AcDbEntity
  8
10_ALL_FEATURES
100
AcDbCircle
 62
7
  6
CONTINUOUS
 10
186.5982754108
 20
253.9147521258
 40
112.8562538263
100
AcDbArc
 50
174.9132176509
 51
177.2379395386
  0
ARC
  5
320
100
AcDbEntity
  8
10_ALL_FEATURES
100
AcDbCircle
 62
7
  6
CONTINUOUS
 10
186.5982754108
 20
253.9147521258
 40
99.4303459412
100
AcDbArc
 50
10.1370088525
 51
169.8629911475
  0
ARC
  5
321
100
AcDbEntity
  8
10_ALL_FEATURES
100
AcDbCircle
 62
7
  6
CONTINUOUS
 10
186.5982754108
 20
253.9147521258
 40
95.7180867733
100
AcDbArc
 50
10.5345589868
 51
169.4654410132
  0
ARC
  5
322
100
AcDbEntity
  8
10_ALL_FEATURES
100
AcDbCircle
 62
9
  6
CONTINUOUS
 10
186.5982754108
 20
253.9147521258
 40
95.1724030489
100
AcDbArc
 50
3.0114910973
 51
176.9885089027
  0
ARC
  5
323
100
AcDbEntity
  8
10_ALL_FEATURES
100
AcDbCircle
 62
7
  6
CONTINUOUS
 10
186.6182460782
 20
255.670073231
 40
86.3247773003
100
AcDbArc
 50
51.1024605779
 51
58.0760341027
  0
ARC
  5
324
100
AcDbEntity
  8
10_ALL_FEATURES
100
AcDbCircle
 62
7
  6
CONTINUOUS
 10
186.630730152
 20
256.2889753666
 40
77.4426589349
100
AcDbArc
 50
53.7306024241
 51
55.4450336128
  0
ARC
  5
325
100
AcDbEntity
  8
10_ALL_FEATURES
100
AcDbCircle
 62
7
  6
CONTINUOUS
 10
186.6725512325
 20
256.3381324879
 40
77.3780329243
100
AcDbArc
 50
37.6890692251
 51
45.7862229681
  0
ARC
  5
326
100
AcDbEntity
  8
10_ALL_FEATURES
100
AcDbCircle
 62
7
  6
CONTINUOUS
 10
186.5982754108
 20
253.9147521258
 40
72.9665455712
100
AcDbArc
 50
138.0639597778
 51
170.6853235472
  0
ARC
  5
327
100
AcDbEntity
  8
10_ALL_FEATURES
100
AcDbCircle
 62
7
  6
CONTINUOUS
 10
186.5982754108
 20
253.9147521258
 40
72.9665455712
100
AcDbArc
 50
9.3146764528
 51
41.9360402222
  0
ARC
  5
328
100
AcDbEntity
  8
10_ALL_FEATURES
100
AcDbCircle
 62
7
  6
CONTINUOUS
 10
186.5982754108
 20
253.9147521258
 40
72.9665455712
100
AcDbArc
 50
53.7841008915
 51
126.2158991085
  0
ARC
  5
329
100
AcDbEntity
  8
10_ALL_FEATURES
100
AcDbCircle
 62
7
  6
CONTINUOUS
 10
2624.2732746097
 20
297.5947138538
 40
2485.1101843288
100
AcDbArc
 50
179.3030385281
 51
179.6166073273
  0
ARC
  5
32A
100
AcDbEntity
  8
10_ALL_FEATURES
100
AcDbCircle
 62
7
  6
CONTINUOUS
 10
2439.7546925003
 20
297.4945612635
 40
2200.5662827586
100
AcDbArc
 50
179.3120536958
 51
179.5667548545
  0
ARC
  5
32B
100
AcDbEntity
  8
10_ALL_FEATURES
100
AcDbCircle
 62
7
  6
CONTINUOUS
 10
297.6237807817
 20
287.0155985425
 40
196.2906334722
100
AcDbArc
 50
169.2572240744
 51
169.9309576525
  0
ARC
  5
32C
100
AcDbEntity
  8
10_ALL_FEATURES
100
AcDbCircle
 62
9
  6
CONTINUOUS
 10
265.2029202431
 20
302.802928391
 40
33.2481385461
100
AcDbArc
 50
159.9098305189
 51
160.5701761746
  0
ARC
  5
32D
100
AcDbEntity
  8
10_ALL_FEATURES
100
AcDbCircle
 62
9
  6
CONTINUOUS
 10
208.3247383816
 20
302.9213392287
 40
32.8964978807
100
AcDbArc
 50
19.4271701645
 51
19.9286570924
  0
ARC
  5
32E
100
AcDbEntity
  8
10_ALL_FEATURES
100
AcDbCircle
 62
9
  6
CONTINUOUS
 10
264.7327356451
 20
303.464694327
 40
32.2420747063
100
AcDbArc
 50
160.8353341322
 51
161.500405744
  0
ARC
  5
32F
100
AcDbEntity
  8
10_ALL_FEATURES
100
AcDbCircle
 62
9
  6
CONTINUOUS
 10
208.7288790743
 20
303.5546917875
 40
31.9621517614
100
AcDbArc
 50
18.4973665862
 51
19.0207138927
  0
ARC
  5
330
100
AcDbEntity
  8
10_ALL_FEATURES
100
AcDbCircle
 62
7
  6
CONTINUOUS
 10
236.5982754103
 20
309.9142529132
 40
4.5006064085
100
AcDbArc
 50
57.146661057
 51
122.8533389708
  0
ARC
  5
331
100
AcDbEntity
  8
10_ALL_FEATURES
100
AcDbCircle
 62
7
  6
CONTINUOUS
 10
236.5982754108
 20
309.9147521258
 40
4.0
100
AcDbArc
 50
180.0
 51
360.0
  0
ARC
  5
332
100
AcDbEntity
  8
10_ALL_FEATURES
100
AcDbCircle
 62
7
  6
CONTINUOUS
 10
234.5649628481
 20
307.4147521258
 40
4.0
100
AcDbArc
 50
181.0
 51
270.0
  0
ARC
  5
333
100
AcDbEntity
  8
10_ALL_FEATURES
100
AcDbCircle
 62
9
  6
CONTINUOUS
 10
234.5649632052
 20
307.3973000827
 40
3.0000003634
100
AcDbArc
 50
181.0000068196
 51
269.9999931804
  0
ARC
  5
334
100
AcDbEntity
  8
10_ALL_FEATURES
100
AcDbCircle
 62
7
  6
CONTINUOUS
 10
278.4019704537
 20
307.5473988249
 40
2.9115067761
100
AcDbArc
 50
187.2062691462
 51
187.7902169538
  0
ARC
  5
335
100
AcDbEntity
  8
10_ALL_FEATURES
100
AcDbCircle
 62
7
  6
CONTINUOUS
 10
234.0482143423
 20
313.8629646138
 40
0.1999401697
100
AcDbArc
 50
179.9927066494
 51
302.8735968843
  0
ARC
  5
336
100
AcDbEntity
  8
10_ALL_FEATURES
100
AcDbCircle
 62
7
  6
CONTINUOUS
 10
239.148336436
 20
313.8629645771
 40
0.1999401646
100
AcDbArc
 50
237.1264069588
 51
0.0073038684
  0
ARC
  5
337
100
AcDbEntity
  8
10_ALL_FEATURES
100
AcDbCircle
 62
7
  6
CONTINUOUS
 10
-240.5311033267
 20
-7089.2222338613
 40
7450.8405870469
100
AcDbArc
 50
84.2385833325
 51
84.371970315
  0
ARC
  5
338
100
AcDbEntity
  8
10_ALL_FEATURES
100
AcDbCircle
 62
7
  6
CONTINUOUS
 10
-125.9349686927
 20
-5455.223882928
 40
5808.0153120907
100
AcDbArc
 50
83.7179076805
 51
83.8973172576
  0
ARC
  5
339
100
AcDbEntity
  8
10_ALL_FEATURES
100
AcDbCircle
 62
7
  6
CONTINUOUS
 10
-115.2145017782
 20
-5354.3082634398
 40
5709.9835609746
100
AcDbArc
 50
83.7130989496
 51
83.8912880109
  0
ARC
  5
33A
100
AcDbEntity
  8
10_ALL_FEATURES
100
AcDbCircle
 62
7
  6
CONTINUOUS
 10
-6.7555684447
 20
-3907.0161989776
 40
4249.7308430321
100
AcDbArc
 50
82.9918129431
 51
83.2486373798
  0
ARC
  5
33B
100
AcDbEntity
  8
10_ALL_FEATURES
100
AcDbCircle
 62
7
  6
CONTINUOUS
 10
4.1670401071
 20
-3834.5014689488
 40
4180.3151195417
100
AcDbArc
 50
83.0178421606
 51
83.2737511592
  0
ARC
  5
33C
100
AcDbEntity
  8
10_ALL_FEATURES
100
AcDbCircle
 62
7
  6
CONTINUOUS
 10
118.7739140836
 20
-2503.3735812513
 40
2838.2669751908
100
AcDbArc
 50
81.983233272
 51
82.3792758771
  0
ARC
  5
33D
100
AcDbEntity
  8
10_ALL_FEATURES
100
AcDbCircle
 62
9
  6
CONTINUOUS
 10
379.7748883848
 20
-489.1596447906
 40
794.2456839011
100
AcDbArc
 50
90.4059216912
 51
90.5387059396
  0
ARC
  5
33E
100
AcDbEntity
  8
10_ALL_FEATURES
100
AcDbCircle
 62
7
  6
CONTINUOUS
 10
372.5648172983
 20
-214.0474626272
 40
498.4139921958
100
AcDbArc
 50
77.7161798885
 51
78.473864789
  0
ARC
  5
33F
100
AcDbEntity
  8
10_ALL_FEATURES
100
AcDbCircle
 62
7
  6
CONTINUOUS
 10
377.2347685407
 20
-193.6686330653
 40
476.9733957037
100
AcDbArc
 50
77.7663434425
 51
78.3827935168
  0
ARC
  5
340
100
AcDbEntity
  8
10_ALL_FEATURES
100
AcDbCircle
 62
9
  6
CONTINUOUS
 10
374.1511053256
 20
306.0774112867
 40
1.0057269471
100
AcDbArc
 50
339.7958064938
 51
344.5546698579
  0
ARC
  5
341
100
AcDbEntity
  8
10_ALL_FEATURES
100
AcDbCircle
 62
9
  6
CONTINUOUS
 10
374.1567707012
 20
306.0760086665
 40
0.9998926446
100
AcDbArc
 50
344.545683115
 51
358.9929338006
  0
ARC
  5
342
100
AcDbEntity
  8
10_ALL_FEATURES
100
AcDbCircle
 62
7
  6
CONTINUOUS
 10
373.2118290953
 20
314.581908886
 40
0.9289518909
100
AcDbArc
 50
189.6221115321
 51
190.3424153966
  0
ARC
  5
343
100
AcDbEntity
  8
10_ALL_FEATURES
100
AcDbCircle
 62
7
  6
CONTINUOUS
 10
373.0254532255
 20
314.550337919
 40
0.7399209675
100
AcDbArc
 50
188.8847222961
 51
189.624107227
  0
ARC
  5
344
100
AcDbEntity
  8
10_ALL_FEATURES
100
AcDbCircle
 62
7
  6
CONTINUOUS
 10
374.5914029931
 20
305.9147521258
 40
0.5
100
AcDbArc
 50
270.0
 51
359.0
  0
ARC
  5
345
100
AcDbEntity
  8
10_ALL_FEATURES
100
AcDbCircle
 62
7
  6
CONTINUOUS
 10
372.7884449053
 20
304.9147521258
 40
0.5
100
AcDbArc
 50
90.0
 51
180.0
  0
ARC
  5
346
100
AcDbEntity
  8
10_ALL_FEATURES
100
AcDbCircle
 62
7
  6
CONTINUOUS
 10
449.8075817546
 20
253.9147521258
 40
122.2402597403
100
AcDbArc
 50
54.4295589627
 51
71.2758356966
  0
ARC
  5
347
100
AcDbEntity
  8
10_ALL_FEATURES
100
AcDbCircle
 62
7
  6
CONTINUOUS
 10
455.2504260765
 20
264.368192087
 40
108.3735659522
100
AcDbArc
 50
117.0528219865
 51
117.363199137
  0
ARC
  5
348
100
AcDbEntity
  8
10_ALL_FEATURES
100
AcDbCircle
 62
7
  6
CONTINUOUS
 10
454.9143686599
 20
265.0688700853
 40
107.5963641322
100
AcDbArc
 50
113.7317771209
 51
114.1994140712
  0
ARC
  5
349
100
AcDbEntity
  8
10_ALL_FEATURES
100
AcDbCircle
 62
7
  6
CONTINUOUS
 10
454.6500022532
 20
265.711947396
 40
106.90097217
100
AcDbArc
 50
110.295199556
 51
110.9652053906
  0
ARC
  5
34A
100
AcDbEntity
  8
10_ALL_FEATURES
100
AcDbCircle
 62
7
  6
CONTINUOUS
 10
454.450316029
 20
266.2939906173
 40
106.2855358981
100
AcDbArc
 50
106.6078842589
 51
107.5745257543
  0
ARC
  5
34B
100
AcDbEntity
  8
10_ALL_FEATURES
100
AcDbCircle
 62
7
  6
CONTINUOUS
 10
432.9051383198
 20
253.7214867608
 40
102.6084415578
100
AcDbArc
 50
41.2261501472
 51
42.9266930337
  0
ARC
  5
34C
100
AcDbEntity
  8
10_ALL_FEATURES
100
AcDbCircle
 62
7
  6
CONTINUOUS
 10
432.0087228907
 20
253.3579666875
 40
101.1364030652
100
AcDbArc
 50
37.4186752821
 51
39.3466501987
  0
ARC
  5
34D
100
AcDbEntity
  8
10_ALL_FEATURES
100
AcDbCircle
 62
7
  6
CONTINUOUS
 10
431.0650492925
 20
252.9971759751
 40
99.5779676155
100
AcDbArc
 50
32.9663547463
 51
35.2288745358
  0
ARC
  5
34E
100
AcDbEntity
  8
10_ALL_FEATURES
100
AcDbCircle
 62
9
  6
CONTINUOUS
 10
423.281427268
 20
168.7976247573
 40
92.8058702169
100
AcDbArc
 50
87.2673464676
 51
87.5662053157
  0
ARC
  5
34F
100
AcDbEntity
  8
10_ALL_FEATURES
100
AcDbCircle
 62
9
  6
CONTINUOUS
 10
440.1325723802
 20
289.7514256816
 40
71.5356003561
100
AcDbArc
 50
156.8534336207
 51
161.43938158
  0
ARC
  5
350
100
AcDbEntity
  8
10_ALL_FEATURES
100
AcDbCircle
 62
9
  6
CONTINUOUS
 10
440.1389300083
 20
289.8093744113
 40
71.0409151592
100
AcDbArc
 50
156.8936281023
 51
161.4510183746
  0
ARC
  5
351
100
AcDbEntity
  8
10_ALL_FEATURES
100
AcDbCircle
 62
7
  6
CONTINUOUS
 10
425.5865566191
 20
305.1885409055
 40
58.0
100
AcDbArc
 50
127.0455683763
 51
156.7705832177
  0
ARC
  5
352
100
AcDbEntity
  8
10_ALL_FEATURES
100
AcDbCircle
 62
9
  6
CONTINUOUS
 10
456.360409835
 20
250.2998659723
 40
28.7441065969
100
AcDbArc
 50
53.9306732705
 51
56.6671301443
  0
ARC
  5
353
100
AcDbEntity
  8
10_ALL_FEATURES
100
AcDbCircle
 62
9
  6
CONTINUOUS
 10
457.7282722792
 20
250.3099798714
 40
28.7318097693
100
AcDbArc
 50
123.3322829275
 51
126.0699125085
  0
ARC
  5
354
100
AcDbEntity
  8
10_ALL_FEATURES
100
AcDbCircle
 62
7
  6
CONTINUOUS
 10
457.0478414948
 20
253.9147521258
 40
25.0
100
AcDbArc
 50
54.6106047978
 51
125.3893899235
  0
ARC
  5
355
100
AcDbEntity
  8
10_ALL_FEATURES
100
AcDbCircle
 62
7
  6
CONTINUOUS
 10
436.4712605452
 20
268.9852699938
 40
4.1264188225
100
AcDbArc
 50
123.739352707
 51
140.5122656802
  0
ARC
  5
356
100
AcDbEntity
  8
10_ALL_FEATURES
100
AcDbCircle
 62
7
  6
CONTINUOUS
 10
436.7671712221
 20
268.5022601774
 40
4.1257948533
100
AcDbArc
 50
123.4377148265
 51
140.0974677069
  0
ARC
  5
357
100
AcDbEntity
  8
10_ALL_FEATURES
100
AcDbCircle
 62
7
  6
CONTINUOUS
 10
436.6510963484
 20
268.5047894006
 40
4.0608458758
100
AcDbArc
 50
102.2311158166
 51
122.0905864852
  0
ARC
  5
358
100
AcDbEntity
  8
10_ALL_FEATURES
100
AcDbCircle
 62
7
  6
CONTINUOUS
 10
436.3549509504
 20
268.9878606914
 40
4.0607822687
100
AcDbArc
 50
102.2827535202
 51
122.394858211
  0
ARC
  5
359
100
AcDbEntity
  8
10_ALL_FEATURES
100
AcDbCircle
 62
7
  6
CONTINUOUS
 10
423.5447391717
 20
262.632156723
 40
3.7174066425
100
AcDbArc
 50
270.0601036565
 51
293.8433918799
  0
ARC
  5
35A
100
AcDbEntity
  8
10_ALL_FEATURES
100
AcDbCircle
 62
7
  6
CONTINUOUS
 10
457.0479142629
 20
489.5599552063
 40
117.8221944895
100
AcDbArc
 50
269.6378781472
 51
269.9999646136
  0
ARC
  5
35B
100
AcDbEntity
  8
10_ALL_FEATURES
100
AcDbCircle
 62
7
  6
CONTINUOUS
 10
457.047836049
 20
489.5382727727
 40
117.8005120559
100
AcDbArc
 50
270.0000026487
 51
270.3002733925
  0
ARC
  5
35C
100
AcDbEntity
  8
10_ALL_FEATURES
100
AcDbCircle
 62
7
  6
CONTINUOUS
 10
436.5946576794
 20
447.7554262043
 40
96.8359319337
100
AcDbArc
 50
263.1514683761
 51
263.3498782493
  0
ARC
  5
35D
100
AcDbEntity
  8
10_ALL_FEATURES
100
AcDbCircle
 62
7
  6
CONTINUOUS
 10
423.8457686269
 20
368.9001919963
 40
0.7876679933
100
AcDbArc
 50
286.6731005513
 51
289.7585028071
  0
ARC
  5
35E
100
AcDbEntity
  8
10_ALL_FEATURES
100
AcDbCircle
 62
7
  6
CONTINUOUS
 10
420.7638797005
 20
343.3401743393
 40
0.2293197279
100
AcDbArc
 50
305.7463873057
 51
316.093689276
  0
ARC
  5
35F
100
AcDbEntity
  8
10_ALL_FEATURES
100
AcDbCircle
 62
7
  6
CONTINUOUS
 10
423.0187705856
 20
347.7495972648
 40
0.2237217761
100
AcDbArc
 50
302.8928156491
 51
313.2155456136
  0
ARC
  5
360
100
AcDbEntity
  8
10_ALL_FEATURES
100
AcDbCircle
 62
7
  6
CONTINUOUS
 10
544.6449335073
 20
-228.8181018653
 40
513.509009854
100
AcDbArc
 50
101.5372786908
 51
102.2726892361
  0
ARC
  5
361
100
AcDbEntity
  8
10_ALL_FEATURES
100
AcDbCircle
 62
7
  6
CONTINUOUS
 10
538.7956469413
 20
-202.82911025
 40
486.3358236068
100
AcDbArc
 50
101.6231480092
 51
102.2277294686
  0
ARC
  5
362
100
AcDbEntity
  8
10_ALL_FEATURES
100
AcDbCircle
 62
7
  6
CONTINUOUS
 10
464.2881012351
 20
253.9147521258
 40
122.2402597403
100
AcDbArc
 50
120.1145931633
 51
127.0455683763
  0
ARC
  5
363
100
AcDbEntity
  8
10_ALL_FEATURES
100
AcDbCircle
 62
9
  6
CONTINUOUS
 10
493.9529185679
 20
155.5659077362
 40
110.7667333924
100
AcDbArc
 50
94.7573683623
 51
95.0309024308
  0
ARC
  5
364
100
AcDbEntity
  8
10_ALL_FEATURES
100
AcDbCircle
 62
7
  6
CONTINUOUS
 10
479.8084285823
 20
258.4338706437
 40
107.8308337788
100
AcDbArc
 50
120.5201595617
 51
122.0602824924
  0
ARC
  5
365
100
AcDbEntity
  8
10_ALL_FEATURES
100
AcDbCircle
 62
7
  6
CONTINUOUS
 10
481.2241131547
 20
257.8557807526
 40
106.8685755997
100
AcDbArc
 50
122.9227135779
 51
124.755052366
  0
ARC
  5
366
100
AcDbEntity
  8
10_ALL_FEATURES
100
AcDbCircle
 62
7
  6
CONTINUOUS
 10
482.7070661767
 20
257.2109361984
 40
105.8612265877
100
AcDbArc
 50
125.7232166585
 51
127.656769842
  0
ARC
  5
367
100
AcDbEntity
  8
10_ALL_FEATURES
100
AcDbCircle
 62
7
  6
CONTINUOUS
 10
477.6244369318
 20
268.9852663431
 40
4.1264184361
100
AcDbArc
 50
39.488036946
 51
56.2608856104
  0
ARC
  5
368
100
AcDbEntity
  8
10_ALL_FEATURES
100
AcDbCircle
 62
7
  6
CONTINUOUS
 10
477.3285251696
 20
268.5022569629
 40
4.1257944655
100
AcDbArc
 50
39.9028108925
 51
56.5625046492
  0
ARC
  5
369
100
AcDbEntity
  8
10_ALL_FEATURES
100
AcDbCircle
 62
7
  6
CONTINUOUS
 10
477.4445998108
 20
268.5047858943
 40
4.0608462304
100
AcDbArc
 50
57.9096359749
 51
77.7688965533
  0
ARC
  5
36A
100
AcDbEntity
  8
10_ALL_FEATURES
100
AcDbCircle
 62
7
  6
CONTINUOUS
 10
477.7407462378
 20
268.9878566285
 40
4.0607827879
100
AcDbArc
 50
57.6053836942
 51
77.7172636846
  0
ARC
  5
36B
100
AcDbEntity
  8
10_ALL_FEATURES
100
AcDbCircle
 62
7
  6
CONTINUOUS
 10
511.8282695029
 20
305.3781224716
 40
3.3155071523
100
AcDbArc
 50
32.3610080701
 51
32.9649185052
  0
ARC
  5
36C
100
AcDbEntity
  8
10_ALL_FEATURES
100
AcDbCircle
 62
7
  6
CONTINUOUS
 10
-1200.0221033853
 20
91.7961151701
 40
1502.5364458668
100
AcDbArc
 50
0.2443138062
 51
0.3952164889
  0
ARC
  5
36D
100
AcDbEntity
  8
10_ALL_FEATURES
100
AcDbCircle
 62
7
  6
CONTINUOUS
 10
-728.3954133434
 20
-127.2863986253
 40
1022.7953231538
100
AcDbArc
 50
11.0278022961
 51
11.1536319567
  0
ARC
  5
36E
100
AcDbEntity
  8
10_ALL_FEATURES
100
AcDbCircle
 62
9
  6
CONTINUOUS
 10
-82.3019036365
 20
201.0446357843
 40
223.5708472797
100
AcDbArc
 50
1.9401848666
 51
2.4662922107
  0
ARC
  5
36F
100
AcDbEntity
  8
10_ALL_FEATURES
100
AcDbCircle
 62
9
  6
CONTINUOUS
 10
-33.5487523071
 20
201.178695989
 40
174.4656293191
100
AcDbArc
 50
2.297344389
 51
2.9576890582
  0
ARC
  5
370
100
AcDbEntity
  8
10_ALL_FEATURES
100
AcDbCircle
 62
7
  6
CONTINUOUS
 10
-45.8018699991
 20
129.9673470498
 40
116.970765981
100
AcDbArc
 50
2.986255631
 51
4.6180709384
  0
ARC
  5
371
100
AcDbEntity
  8
10_ALL_FEATURES
100
AcDbCircle
 62
7
  6
CONTINUOUS
 10
-45.569380081
 20
121.860127778
 40
116.7377869474
100
AcDbArc
 50
355.3802987545
 51
357.0153722584
  0
ARC
  5
372
100
AcDbEntity
  8
10_ALL_FEATURES
100
AcDbCircle
 62
7
  6
CONTINUOUS
 10
-44.1328671327
 20
125.9214622262
 40
115.5885168817
100
AcDbArc
 50
354.9674387488
 51
5.0325612512
  0
ARC
  5
373
100
AcDbEntity
  8
10_ALL_FEATURES
100
AcDbCircle
 62
7
  6
CONTINUOUS
 10
89.5195986586
 20
88.4525086245
 40
1.8296364423
100
AcDbArc
 50
114.1428379118
 51
200.9326545899
  0
ARC
  5
374
100
AcDbEntity
  8
10_ALL_FEATURES
100
AcDbCircle
 62
7
  6
CONTINUOUS
 10
93.2870310262
 20
89.8249963127
 40
1.7998046994
100
AcDbArc
 50
115.4275502813
 51
201.0069927683
  0
ARC
  5
375
100
AcDbEntity
  8
10_ALL_FEATURES
100
AcDbCircle
 62
7
  6
CONTINUOUS
 10
97.0522177675
 20
91.1961939024
 40
1.7848993971
100
AcDbArc
 50
116.1649493862
 51
201.0740271218
  0
ARC
  5
376
100
AcDbEntity
  8
10_ALL_FEATURES
100
AcDbCircle
 62
7
  6
CONTINUOUS
 10
96.7422517035
 20
68.5426494006
 40
0.9585343163
100
AcDbArc
 50
347.8222143334
 51
348.9731084237
  0
ARC
  5
377
100
AcDbEntity
  8
10_ALL_FEATURES
100
AcDbCircle
 62
7
  6
CONTINUOUS
 10
97.2345037486
 20
70.7372870788
 40
0.897642731
100
AcDbArc
 50
348.8409608051
 51
31.7956800002
  0
ARC
  5
378
100
AcDbEntity
  8
10_ALL_FEATURES
100
AcDbCircle
 62
7
  6
CONTINUOUS
 10
103.4641308224
 20
72.9125493902
 40
0.8805336798
100
AcDbArc
 50
348.5388389095
 51
359.1990934078
  0
ARC
  5
379
100
AcDbEntity
  8
10_ALL_FEATURES
100
AcDbCircle
 62
7
  6
CONTINUOUS
 10
100.5948739078
 20
72.9185787416
 40
0.8583737976
100
AcDbArc
 50
348.6294438582
 51
31.7341731315
  0
ARC
  5
37A
100
AcDbEntity
  8
10_ALL_FEATURES
100
AcDbCircle
 62
7
  6
CONTINUOUS
 10
103.9539195071
 20
75.0988580433
 40
0.8363254161
100
AcDbArc
 50
348.4655665811
 51
31.6718087364
  0
ARC
  5
37B
100
AcDbEntity
  8
10_ALL_FEATURES
100
AcDbCircle
 62
9
  6
CONTINUOUS
 10
155.4927816193
 20
138.0621932691
 40
76.0513551672
100
AcDbArc
 50
107.3727304512
 51
111.5007674258
  0
ARC
  5
37C
100
AcDbEntity
  8
10_ALL_FEATURES
100
AcDbCircle
 62
9
  6
CONTINUOUS
 10
155.4390049503
 20
138.0261798238
 40
75.5886374662
100
AcDbArc
 50
107.3366391453
 51
111.4529520034
  0
ARC
  5
37D
100
AcDbEntity
  8
10_ALL_FEATURES
100
AcDbCircle
 62
7
  6
CONTINUOUS
 10
279.9095197446
 20
89.8249963172
 40
1.7998049769
100
AcDbArc
 50
338.9930076767
 51
64.5724481977
  0
ARC
  5
37E
100
AcDbEntity
  8
10_ALL_FEATURES
100
AcDbCircle
 62
7
  6
CONTINUOUS
 10
276.1443335727
 20
91.1961936342
 40
1.7848989954
100
AcDbArc
 50
338.9259749276
 51
63.8350693521
  0
ARC
  5
37F
100
AcDbEntity
  8
10_ALL_FEATURES
100
AcDbCircle
 62
7
  6
CONTINUOUS
 10
276.4542991184
 20
68.5426494007
 40
0.9585343166
100
AcDbArc
 50
191.0268915766
 51
192.1777856664
  0
ARC
  5
380
100
AcDbEntity
  8
10_ALL_FEATURES
100
AcDbCircle
 62
7
  6
CONTINUOUS
 10
275.9620470631
 20
70.7372870806
 40
0.8976427216
100
AcDbArc
 50
148.204319765
 51
191.1590394297
  0
ARC
  5
381
100
AcDbEntity
  8
10_ALL_FEATURES
100
AcDbCircle
 62
7
  6
CONTINUOUS
 10
269.7323774842
 20
72.9125448234
 40
0.8804911052
100
AcDbArc
 50
180.8006481167
 51
191.461419566
  0
ARC
  5
382
100
AcDbEntity
  8
10_ALL_FEATURES
100
AcDbCircle
 62
7
  6
CONTINUOUS
 10
272.6016769167
 20
72.918578741
 40
0.8583738004
100
AcDbArc
 50
148.2658269405
 51
191.3705560698
  0
ARC
  5
383
100
AcDbEntity
  8
10_ALL_FEATURES
100
AcDbCircle
 62
7
  6
CONTINUOUS
 10
269.2426313204
 20
75.0988580422
 40
0.8363254216
100
AcDbArc
 50
148.3281914147
 51
191.5344332677
  0
ARC
  5
384
100
AcDbEntity
  8
10_ALL_FEATURES
100
AcDbCircle
 62
7
  6
CONTINUOUS
 10
186.5493960615
 20
125.6923886405
 40
105.8514939729
100
AcDbArc
 50
327.2004017241
 51
339.0233458604
  0
ARC
  5
385
100
AcDbEntity
  8
10_ALL_FEATURES
100
AcDbCircle
 62
7
  6
CONTINUOUS
 10
186.5643167253
 20
126.1242433903
 40
104.2095902097
100
AcDbArc
 50
200.2109310403
 51
211.8000959302
  0
ARC
  5
386
100
AcDbEntity
  8
10_ALL_FEATURES
100
AcDbCircle
 62
7
  6
CONTINUOUS
 10
186.5684007
 20
125.7228800537
 40
101.8058436233
100
AcDbArc
 50
327.2457020896
 51
338.9643662035
  0
ARC
  5
387
100
AcDbEntity
  8
10_ALL_FEATURES
100
AcDbCircle
 62
7
  6
CONTINUOUS
 10
186.5751743505
 20
126.0999394962
 40
100.2399407103
100
AcDbArc
 50
200.2223877191
 51
211.7380505892
  0
ARC
  5
388
100
AcDbEntity
  8
10_ALL_FEATURES
100
AcDbCircle
 62
7
  6
CONTINUOUS
 10
186.5780719931
 20
125.7462433851
 40
97.7839179858
100
AcDbArc
 50
327.2866391843
 51
338.9063202121
  0
ARC
  5
389
100
AcDbEntity
  8
10_ALL_FEATURES
100
AcDbCircle
 62
7
  6
CONTINUOUS
 10
186.5815343832
 20
126.0807614066
 40
96.2537215038
100
AcDbArc
 50
200.2293645762
 51
211.6749468156
  0
ARC
  5
38A
100
AcDbEntity
  8
10_ALL_FEATURES
100
AcDbCircle
 62
7
  6
CONTINUOUS
 10
186.5941057951
 20
125.806319484
 40
82.1659112818
100
AcDbArc
 50
130.3781457658
 51
151.4998704917
  0
ARC
  5
38B
100
AcDbEntity
  8
10_ALL_FEATURES
100
AcDbCircle
 62
7
  6
CONTINUOUS
 10
186.5934405102
 20
125.8009407661
 40
82.0947740744
100
AcDbArc
 50
130.3753106863
 51
151.4749291035
  0
ARC
  5
38C
100
AcDbEntity
  8
10_ALL_FEATURES
100
AcDbCircle
 62
7
  6
CONTINUOUS
 10
186.5933237292
 20
126.0397115335
 40
79.8693331648
100
AcDbArc
 50
26.9558040699
 51
50.9011394855
  0
ARC
  5
38D
100
AcDbEntity
  8
10_ALL_FEATURES
100
AcDbCircle
 62
7
  6
CONTINUOUS
 10
186.5940241666
 20
126.0341489136
 40
79.7975602172
100
AcDbArc
 50
26.8280514817
 51
50.9594142793
  0
ARC
  5
38E
100
AcDbEntity
  8
10_ALL_FEATURES
100
AcDbCircle
 62
7
  6
CONTINUOUS
 10
186.5951360234
 20
125.8183422628
 40
77.1549950441
100
AcDbArc
 50
130.4763991958
 51
151.4063071348
  0
ARC
  5
38F
100
AcDbEntity
  8
10_ALL_FEATURES
100
AcDbCircle
 62
7
  6
CONTINUOUS
 10
186.5946901189
 20
125.8139951842
 40
77.0873056004
100
AcDbArc
 50
130.4740024677
 51
151.3816550423
  0
ARC
  5
390
100
AcDbEntity
  8
10_ALL_FEATURES
100
AcDbCircle
 62
7
  6
CONTINUOUS
 10
186.5946499718
 20
126.0268221809
 40
74.8808487121
100
AcDbArc
 50
26.9752098354
 51
50.8996444879
  0
ARC
  5
391
100
AcDbEntity
  8
10_ALL_FEATURES
100
AcDbCircle
 62
7
  6
CONTINUOUS
 10
186.5951091616
 20
126.0222981206
 40
74.8125584286
100
AcDbArc
 50
26.8451125503
 51
50.95809857
  0
ARC
  5
392
100
AcDbEntity
  8
10_ALL_FEATURES
100
AcDbCircle
 62
7
  6
CONTINUOUS
 10
186.595877845
 20
125.8288901371
 40
72.1361656614
100
AcDbArc
 50
130.5877469564
 51
151.2954360207
  0
ARC
  5
393
100
AcDbEntity
  8
10_ALL_FEATURES
100
AcDbCircle
 62
7
  6
CONTINUOUS
 10
186.5955697867
 20
125.8253170744
 40
72.0712640373
100
AcDbArc
 50
130.5856667412
 51
151.2706591079
  0
ARC
  5
394
100
AcDbEntity
  8
10_ALL_FEATURES
100
AcDbCircle
 62
7
  6
CONTINUOUS
 10
186.5955356247
 20
126.0155875704
 40
69.9006847804
100
AcDbArc
 50
27.0137787578
 51
50.8887872716
  0
ARC
  5
395
100
AcDbEntity
  8
10_ALL_FEATURES
100
AcDbCircle
 62
7
  6
CONTINUOUS
 10
186.5958674065
 20
126.0118683052
 40
69.8351838162
100
AcDbArc
 50
27.1893564013
 51
50.9485551403
  0
ARC
  5
396
100
AcDbEntity
  8
10_ALL_FEATURES
100
AcDbCircle
 62
7
  6
CONTINUOUS
 10
185.9722368115
 20
126.0989693865
 40
69.236697939
100
AcDbArc
 50
152.6371247711
 51
152.9469875442
  0
ARC
  5
397
100
AcDbEntity
  8
10_ALL_FEATURES
100
AcDbCircle
 62
7
  6
CONTINUOUS
 10
186.5982753855
 20
125.9832568819
 40
51.8249366618
100
AcDbArc
 50
79.2583379069
 51
100.894459114
  0
CIRCLE
  5
398
100
AcDbEntity
  8
10_ALL_FEATURES
100
AcDbCircle
 62
7
  6
CONTINUOUS
 10
185.1837472346
 20
124.5071637454
 40
0.7503885482
  0
CIRCLE
  5
399
100
AcDbEntity
  8
10_ALL_FEATURES
100
AcDbCircle
 62
7
  6
CONTINUOUS
 10
185.1837472346
 20
127.3355908701
 40
0.7503885482
  0
ARC
  5
39A
100
AcDbEntity
  8
10_ALL_FEATURES
100
AcDbCircle
 62
7
  6
CONTINUOUS
 10
186.5982754108
 20
118.6812024859
 40
122.1379592975
100
AcDbArc
 50
142.9182001448
 51
160.5154394559
  0
ARC
  5
39B
100
AcDbEntity
  8
10_ALL_FEATURES
100
AcDbCircle
 62
7
  6
CONTINUOUS
 10
186.5982754108
 20
118.6812024859
 40
122.1379592975
100
AcDbArc
 50
19.4845879288
 51
37.0817998552
  0
ARC
  5
39C
100
AcDbEntity
  8
10_ALL_FEATURES
100
AcDbCircle
 62
7
  6
CONTINUOUS
 10
186.6471547601
 20
125.6923886405
 40
105.8514939729
100
AcDbArc
 50
200.9766541396
 51
212.7995982759
  0
ARC
  5
39D
100
AcDbEntity
  8
10_ALL_FEATURES
100
AcDbCircle
 62
7
  6
CONTINUOUS
 10
186.6281501216
 20
125.7228800537
 40
101.8058436233
100
AcDbArc
 50
201.0356337965
 51
212.7542979104
  0
ARC
  5
39E
100
AcDbEntity
  8
10_ALL_FEATURES
100
AcDbCircle
 62
7
  6
CONTINUOUS
 10
186.6184788285
 20
125.7462433851
 40
97.7839179858
100
AcDbArc
 50
201.0936797879
 51
212.7133608157
  0
ARC
  5
39F
100
AcDbEntity
  8
10_ALL_FEATURES
100
AcDbCircle
 62
7
  6
CONTINUOUS
 10
186.6024466419
 20
125.8063207945
 40
82.165909237
100
AcDbArc
 50
28.5001292427
 51
49.6218545004
  0
ARC
  5
3A0
100
AcDbEntity
  8
10_ALL_FEATURES
100
AcDbCircle
 62
7
  6
CONTINUOUS
 10
186.6031088697
 20
125.8009395949
 40
82.0947759005
100
AcDbArc
 50
28.5250711341
 51
49.6246890767
  0
ARC
  5
3A1
100
AcDbEntity
  8
10_ALL_FEATURES
100
AcDbCircle
 62
7
  6
CONTINUOUS
 10
186.6014163138
 20
125.8183434921
 40
77.154993125
100
AcDbArc
 50
28.5936926022
 51
49.5236010678
  0
ARC
  5
3A2
100
AcDbEntity
  8
10_ALL_FEATURES
100
AcDbCircle
 62
7
  6
CONTINUOUS
 10
186.6018593037
 20
125.8139940477
 40
77.087307373
100
AcDbArc
 50
28.6183452011
 51
49.5259972896
  0
ARC
  5
3A3
100
AcDbEntity
  8
10_ALL_FEATURES
100
AcDbCircle
 62
7
  6
CONTINUOUS
 10
186.6006742493
 20
125.8288911693
 40
72.1361640495
100
AcDbArc
 50
28.7045637457
 51
49.4122532779
  0
ARC
  5
3A4
100
AcDbEntity
  8
10_ALL_FEATURES
100
AcDbCircle
 62
7
  6
CONTINUOUS
 10
186.6009796426
 20
125.8253159433
 40
72.0712658021
100
AcDbArc
 50
28.7293411485
 51
49.4143330032
  0
ARC
  5
3A5
100
AcDbEntity
  8
10_ALL_FEATURES
100
AcDbCircle
 62
7
  6
CONTINUOUS
 10
186.5982754205
 20
125.8573946372
 40
54.1555446388
100
AcDbArc
 50
82.4784630663
 51
97.641571608
  0
ARC
  5
3A6
100
AcDbEntity
  8
10_ALL_FEATURES
100
AcDbCircle
 62
7
  6
CONTINUOUS
 10
186.5982754215
 20
125.8553292039
 40
54.0974449864
100
AcDbArc
 50
82.4787592911
 51
97.6412706859
  0
ARC
  5
3A7
100
AcDbEntity
  8
10_ALL_FEATURES
100
AcDbCircle
 62
7
  6
CONTINUOUS
 10
186.5982754108
 20
125.8646699997
 40
49.1957740224
100
AcDbArc
 50
79.0470893043
 51
100.9529106957
  0
ARC
  5
3A8
100
AcDbEntity
  8
10_ALL_FEATURES
100
AcDbCircle
 62
7
  6
CONTINUOUS
 10
186.5982754108
 20
125.8629388252
 40
49.138835198
100
AcDbArc
 50
79.0474878462
 51
100.9525121538
  0
ARC
  5
3A9
100
AcDbEntity
  8
10_ALL_FEATURES
100
AcDbCircle
 62
7
  6
CONTINUOUS
 10
186.5982754108
 20
125.8714061714
 40
44.2315603097
100
AcDbArc
 50
74.7584276961
 51
105.2415723039
  0
ARC
  5
3AA
100
AcDbEntity
  8
10_ALL_FEATURES
100
AcDbCircle
 62
7
  6
CONTINUOUS
 10
186.5982754108
 20
125.8699575049
 40
44.1756099117
100
AcDbArc
 50
74.7589437972
 51
105.2410562028
  0
ARC
  5
3AB
100
AcDbEntity
  8
10_ALL_FEATURES
100
AcDbCircle
 62
7
  6
CONTINUOUS
 10
186.5982754108
 20
125.8778431858
 40
39.2629746844
100
AcDbArc
 50
68.9176592186
 51
111.0823407814
  0
ARC
  5
3AC
100
AcDbEntity
  8
10_ALL_FEATURES
100
AcDbCircle
 62
7
  6
CONTINUOUS
 10
186.5982754108
 20
125.8766359452
 40
39.2078630695
100
AcDbArc
 50
68.9183266867
 51
111.0816733133
  0
ARC
  5
3AD
100
AcDbEntity
  8
10_ALL_FEATURES
100
AcDbCircle
 62
7
  6
CONTINUOUS
 10
186.5982754108
 20
125.9213774529
 40
0.7500919308
100
AcDbArc
 50
0.0064754764
 51
179.9935245236
  0
ARC
  5
3AE
100
AcDbEntity
  8
10_ALL_FEATURES
100
AcDbCircle
 62
7
  6
CONTINUOUS
 10
186.6322340963
 20
126.1242433903
 40
104.2095902097
100
AcDbArc
 50
328.1999040698
 51
339.7890689597
  0
ARC
  5
3AF
100
AcDbEntity
  8
10_ALL_FEATURES
100
AcDbCircle
 62
7
  6
CONTINUOUS
 10
186.621376471
 20
126.0999394962
 40
100.2399407103
100
AcDbArc
 50
328.2619494108
 51
339.7776122809
  0
ARC
  5
3B0
100
AcDbEntity
  8
10_ALL_FEATURES
100
AcDbCircle
 62
7
  6
CONTINUOUS
 10
186.6150164384
 20
126.0807614066
 40
96.2537215038
100
AcDbArc
 50
328.3250531844
 51
339.7706354238
  0
ARC
  5
3B1
100
AcDbEntity
  8
10_ALL_FEATURES
100
AcDbCircle
 62
7
  6
CONTINUOUS
 10
186.6032150827
 20
126.0397212339
 40
79.8693180627
100
AcDbArc
 50
129.0988582171
 51
153.0441982274
  0
ARC
  5
3B2
100
AcDbEntity
  8
10_ALL_FEATURES
100
AcDbCircle
 62
7
  6
CONTINUOUS
 10
186.6025371564
 20
126.0341404419
 40
79.7975734118
100
AcDbArc
 50
129.0405877458
 51
153.171946493
  0
ARC
  5
3B3
100
AcDbEntity
  8
10_ALL_FEATURES
100
AcDbCircle
 62
7
  6
CONTINUOUS
 10
186.6019018778
 20
126.0268213502
 40
74.8808500051
100
AcDbArc
 50
129.1003557217
 51
153.0247899551
  0
ARC
  5
3B4
100
AcDbEntity
  8
10_ALL_FEATURES
100
AcDbCircle
 62
7
  6
CONTINUOUS
 10
186.6014406989
 20
126.0222988961
 40
74.8125572208
100
AcDbArc
 50
129.0419012324
 51
153.1548876473
  0
ARC
  5
3B5
100
AcDbEntity
  8
10_ALL_FEATURES
100
AcDbCircle
 62
7
  6
CONTINUOUS
 10
186.601016194
 20
126.0155867643
 40
69.9006860348
100
AcDbArc
 50
129.1112129458
 51
152.9862210248
  0
ARC
  5
3B6
100
AcDbEntity
  8
10_ALL_FEATURES
100
AcDbCircle
 62
7
  6
CONTINUOUS
 10
186.6006824266
 20
126.0118691076
 40
69.8351825703
100
AcDbArc
 50
129.0514446447
 51
152.8106438138
  0
ARC
  5
3B7
100
AcDbEntity
  8
10_ALL_FEATURES
100
AcDbCircle
 62
7
  6
CONTINUOUS
 10
187.2243140088
 20
126.0989693857
 40
69.2366979406
100
AcDbArc
 50
27.053012456
 51
27.362875229
  0
ARC
  5
3B8
100
AcDbEntity
  8
10_ALL_FEATURES
100
AcDbCircle
 62
7
  6
CONTINUOUS
 10
186.5982759804
 20
125.9849556595
 40
51.8838962176
100
AcDbArc
 50
79.3686095932
 51
100.7769991149
  0
ARC
  5
3B9
100
AcDbEntity
  8
10_ALL_FEATURES
100
AcDbCircle
 62
7
  6
CONTINUOUS
 10
186.5982754108
 20
125.9775823399
 40
46.8436725696
100
AcDbArc
 50
75.4086017586
 51
104.5913982414
  0
ARC
  5
3BA
100
AcDbEntity
  8
10_ALL_FEATURES
100
AcDbCircle
 62
7
  6
CONTINUOUS
 10
186.5982754108
 20
125.9757647111
 40
46.7863944534
100
AcDbArc
 50
75.2716109212
 51
104.7283890788
  0
ARC
  5
3BB
100
AcDbEntity
  8
10_ALL_FEATURES
100
AcDbCircle
 62
7
  6
CONTINUOUS
 10
186.5982754108
 20
125.970435255
 40
41.808541231
100
AcDbArc
 50
70.4299675312
 51
109.5700324688
  0
ARC
  5
3BC
100
AcDbEntity
  8
10_ALL_FEATURES
100
AcDbCircle
 62
7
  6
CONTINUOUS
 10
186.5982754108
 20
125.9689140243
 40
41.7523014017
100
AcDbArc
 50
70.2627082108
 51
109.7372917892
  0
ARC
  5
3BD
100
AcDbEntity
  8
10_ALL_FEATURES
100
AcDbCircle
 62
7
  6
CONTINUOUS
 10
186.5982754108
 20
125.9636074289
 40
36.7780410831
100
AcDbArc
 50
63.5282320354
 51
116.4717679646
  0
ARC
  5
3BE
100
AcDbEntity
  8
10_ALL_FEATURES
100
AcDbCircle
 62
7
  6
CONTINUOUS
 10
186.5982754108
 20
125.9623384443
 40
36.7226836765
100
AcDbArc
 50
63.3083368867
 51
116.6916631133
  0
ARC
  5
3BF
100
AcDbEntity
  8
10_ALL_FEATURES
100
AcDbCircle
 62
7
  6
CONTINUOUS
 10
186.5982754108
 20
125.9215469994
 40
0.7500919308
100
AcDbArc
 50
180.0064754764
 51
359.9935245236
  0
CIRCLE
  5
3C0
100
AcDbEntity
  8
10_ALL_FEATURES
100
AcDbCircle
 62
7
  6
CONTINUOUS
 10
188.012803587
 20
124.5071637454
 40
0.7503885482
  0
CIRCLE
  5
3C1
100
AcDbEntity
  8
10_ALL_FEATURES
100
AcDbCircle
 62
7
  6
CONTINUOUS
 10
188.012803587
 20
127.3355908702
 40
0.7503885482
  0
ARC
  5
3C2
100
AcDbEntity
  8
10_ALL_FEATURES
100
AcDbCircle
 62
7
  6
CONTINUOUS
 10
186.5982754108
 20
133.1617219664
 40
121.8305425637
100
AcDbArc
 50
198.7894882102
 51
207.4218195135
  0
ARC
  5
3C3
100
AcDbEntity
  8
10_ALL_FEATURES
100
AcDbCircle
 62
7
  6
CONTINUOUS
 10
186.5982754108
 20
133.1617219664
 40
121.8305425637
100
AcDbArc
 50
332.5781804865
 51
341.2105117898
  0
ARC
  5
3C4
100
AcDbEntity
  8
10_ALL_FEATURES
100
AcDbCircle
 62
9
  6
CONTINUOUS
 10
217.7039263973
 20
138.0626317386
 40
76.0508895955
100
AcDbArc
 50
68.4992216886
 51
72.627135162
  0
ARC
  5
3C5
100
AcDbEntity
  8
10_ALL_FEATURES
100
AcDbCircle
 62
9
  6
CONTINUOUS
 10
217.7577484314
 20
138.0267551912
 40
75.5880278775
100
AcDbArc
 50
68.5470313912
 51
72.6633774601
  0
ARC
  5
3C6
100
AcDbEntity
  8
10_ALL_FEATURES
100
AcDbCircle
 62
7
  6
CONTINUOUS
 10
135.4445421871
 20
157.3394335989
 40
58.0196059256
100
AcDbArc
 50
120.2921959477
 51
142.9154456632
  0
ARC
  5
3C7
100
AcDbEntity
  8
10_ALL_FEATURES
100
AcDbCircle
 62
7
  6
CONTINUOUS
 10
120.6773717521
 20
141.9940338857
 40
52.2161930462
100
AcDbArc
 50
160.5040651792
 51
162.239676487
  0
ARC
  5
3C8
100
AcDbEntity
  8
10_ALL_FEATURES
100
AcDbCircle
 62
9
  6
CONTINUOUS
 10
141.9301790503
 20
174.7407685007
 40
5.6872501401
100
AcDbArc
 50
83.0857774354
 51
84.1014853354
  0
ARC
  5
3C9
100
AcDbEntity
  8
10_ALL_FEATURES
100
AcDbCircle
 62
9
  6
CONTINUOUS
 10
142.0876350921
 20
174.9648136244
 40
5.3048223569
100
AcDbArc
 50
84.4220200624
 51
85.4796029456
  0
ARC
  5
3CA
100
AcDbEntity
  8
10_ALL_FEATURES
100
AcDbCircle
 62
7
  6
CONTINUOUS
 10
173.6417262245
 20
159.4863577088
 40
3.2434741984
100
AcDbArc
 50
111.0823048697
 51
159.7027819153
  0
ARC
  5
3CB
100
AcDbEntity
  8
10_ALL_FEATURES
100
AcDbCircle
 62
7
  6
CONTINUOUS
 10
175.8134149947
 20
165.4527408656
 40
3.2072349604
100
AcDbArc
 50
105.2414937869
 51
159.6404723831
  0
ARC
  5
3CC
100
AcDbEntity
  8
10_ALL_FEATURES
100
AcDbCircle
 62
7
  6
CONTINUOUS
 10
173.6417977043
 20
159.4861304615
 40
3.1874738962
100
AcDbArc
 50
111.081629361
 51
159.6941609945
  0
ARC
  5
3CD
100
AcDbEntity
  8
10_ALL_FEATURES
100
AcDbCircle
 62
7
  6
CONTINUOUS
 10
177.8526568469
 20
171.0551913936
 40
3.1667715575
100
AcDbArc
 50
100.9527572884
 51
159.5783784013
  0
ARC
  5
3CE
100
AcDbEntity
  8
10_ALL_FEATURES
100
AcDbCircle
 62
7
  6
CONTINUOUS
 10
175.8134779384
 20
165.452464557
 40
3.1501699866
100
AcDbArc
 50
105.2409651083
 51
159.6296284918
  0
ARC
  5
3CF
100
AcDbEntity
  8
10_ALL_FEATURES
100
AcDbCircle
 62
7
  6
CONTINUOUS
 10
177.8527108233
 20
171.0548609893
 40
3.1084677344
100
AcDbArc
 50
100.952336722
 51
159.565087462
  0
ARC
  5
3D0
100
AcDbEntity
  8
10_ALL_FEATURES
100
AcDbCircle
 62
7
  6
CONTINUOUS
 10
118.9390859628
 20
162.6958041622
 40
0.1011937654
100
AcDbArc
 50
151.3301484802
 51
196.1390381245
  0
ARC
  5
3D1
100
AcDbEntity
  8
10_ALL_FEATURES
100
AcDbCircle
 62
7
  6
CONTINUOUS
 10
123.4132738245
 20
160.4267623619
 40
0.1010755827
100
AcDbArc
 50
151.2283867876
 51
196.1238474374
  0
ARC
  5
3D2
100
AcDbEntity
  8
10_ALL_FEATURES
100
AcDbCircle
 62
9
  6
CONTINUOUS
 10
135.6203925915
 20
182.413243546
 40
5.7873984648
100
AcDbArc
 50
82.7347105229
 51
83.8361710331
  0
ARC
  5
3D3
100
AcDbEntity
  8
10_ALL_FEATURES
100
AcDbCircle
 62
9
  6
CONTINUOUS
 10
138.772898886
 20
178.5573448677
 40
5.7571259085
100
AcDbArc
 50
82.8469591234
 51
83.8951027127
  0
ARC
  5
3D4
100
AcDbEntity
  8
10_ALL_FEATURES
100
AcDbCircle
 62
9
  6
CONTINUOUS
 10
135.7814981781
 20
182.6433142612
 40
5.3986049672
100
AcDbArc
 50
84.0579086083
 51
85.2046668826
  0
ARC
  5
3D5
100
AcDbEntity
  8
10_ALL_FEATURES
100
AcDbCircle
 62
9
  6
CONTINUOUS
 10
138.9328087049
 20
178.7859162854
 40
5.3699464494
100
AcDbArc
 50
84.1743558727
 51
85.2658859606
  0
ARC
  5
3D6
100
AcDbEntity
  8
10_ALL_FEATURES
100
AcDbCircle
 62
7
  6
CONTINUOUS
 10
179.8120063991
 20
176.4380746237
 40
3.1216477161
100
AcDbArc
 50
97.6414075487
 51
159.5144723822
  0
ARC
  5
3D7
100
AcDbEntity
  8
10_ALL_FEATURES
100
AcDbCircle
 62
7
  6
CONTINUOUS
 10
179.8120499574
 20
176.4376828968
 40
3.0618950123
100
AcDbArc
 50
97.641060194
 51
159.4983874979
  0
ARC
  5
3D8
100
AcDbEntity
  8
10_ALL_FEATURES
100
AcDbCircle
 62
7
  6
CONTINUOUS
 10
134.7362849195
 20
186.786321685
 40
2.1171979828
100
AcDbArc
 50
40.2460099748
 51
130.3809333919
  0
ARC
  5
3D9
100
AcDbEntity
  8
10_ALL_FEATURES
100
AcDbCircle
 62
7
  6
CONTINUOUS
 10
137.8814721336
 20
182.9024016115
 40
2.1109354445
100
AcDbArc
 50
40.3687390098
 51
130.4779945828
  0
ARC
  5
3DA
100
AcDbEntity
  8
10_ALL_FEATURES
100
AcDbCircle
 62
7
  6
CONTINUOUS
 10
141.0270971162
 20
179.0179679074
 40
2.0962358275
100
AcDbArc
 50
40.7626928964
 51
130.5886839083
  0
ARC
  5
3DB
100
AcDbEntity
  8
10_ALL_FEATURES
100
AcDbCircle
 62
7
  6
CONTINUOUS
 10
134.7366077291
 20
186.785901575
 40
2.042929209
100
AcDbArc
 50
42.5420307347
 51
130.378310872
  0
ARC
  5
3DC
100
AcDbEntity
  8
10_ALL_FEATURES
100
AcDbCircle
 62
7
  6
CONTINUOUS
 10
137.8817010547
 20
182.9021131446
 40
2.040591249
100
AcDbArc
 50
42.5421966035
 51
130.4758955609
  0
ARC
  5
3DD
100
AcDbEntity
  8
10_ALL_FEATURES
100
AcDbCircle
 62
7
  6
CONTINUOUS
 10
141.0272461427
 20
179.0177734515
 40
2.0290657915
100
AcDbArc
 50
42.8578633548
 51
130.5866991529
  0
ARC
  5
3DE
100
AcDbEntity
  8
10_ALL_FEATURES
100
AcDbCircle
 62
7
  6
CONTINUOUS
 10
141.1865010815
 20
210.1752451573
 40
0.5056136991
100
AcDbArc
 50
89.9770156047
 51
104.2722470983
  0
ARC
  5
3DF
100
AcDbEntity
  8
10_ALL_FEATURES
100
AcDbCircle
 62
7
  6
CONTINUOUS
 10
141.1862863
 20
210.1791096069
 40
0.5018161271
100
AcDbArc
 50
104.3572573848
 51
179.8002804615
  0
ARC
  5
3E0
100
AcDbEntity
  8
10_ALL_FEATURES
100
AcDbCircle
 62
9
  6
CONTINUOUS
 10
140.0965510246
 20
208.3523832994
 40
0.5001348385
100
AcDbArc
 50
270.0238485961
 51
359.9761540625
  0
ARC
  5
3E1
100
AcDbEntity
  8
10_ALL_FEATURES
100
AcDbCircle
 62
9
  6
CONTINUOUS
 10
141.096647582
 20
210.1808995459
 40
0.4999619165
100
AcDbArc
 50
90.0046683429
 51
180.0046676578
  0
ARC
  5
3E2
100
AcDbEntity
  8
10_ALL_FEATURES
100
AcDbCircle
 62
7
  6
CONTINUOUS
 10
237.7520086068
 20
157.3394335677
 40
58.0196059665
100
AcDbArc
 50
37.0845543449
 51
59.7078040442
  0
ARC
  5
3E3
100
AcDbEntity
  8
10_ALL_FEATURES
100
AcDbCircle
 62
7
  6
CONTINUOUS
 10
254.5640020803
 20
142.6833480439
 40
50.0585686136
100
AcDbArc
 50
17.7228761432
 51
19.5333682749
  0
ARC
  5
3E4
100
AcDbEntity
  8
10_ALL_FEATURES
100
AcDbCircle
 62
9
  6
CONTINUOUS
 10
231.2663821741
 20
174.740675851
 40
5.6873433683
100
AcDbArc
 50
95.8985229897
 51
96.9142142395
  0
ARC
  5
3E5
100
AcDbEntity
  8
10_ALL_FEATURES
100
AcDbCircle
 62
9
  6
CONTINUOUS
 10
231.1089269743
 20
174.9646863538
 40
5.3049501179
100
AcDbArc
 50
94.5204097899
 51
95.5779672022
  0
ARC
  5
3E6
100
AcDbEntity
  8
10_ALL_FEATURES
100
AcDbCircle
 62
7
  6
CONTINUOUS
 10
199.5548247975
 20
159.4863579066
 40
3.2434739418
100
AcDbArc
 50
20.297216037
 51
68.917697178
  0
ARC
  5
3E7
100
AcDbEntity
  8
10_ALL_FEATURES
100
AcDbCircle
 62
7
  6
CONTINUOUS
 10
197.3831360559
 20
165.452741116
 40
3.2072346585
100
AcDbArc
 50
20.3595248456
 51
74.7585089843
  0
ARC
  5
3E8
100
AcDbEntity
  8
10_ALL_FEATURES
100
AcDbCircle
 62
7
  6
CONTINUOUS
 10
199.5547529035
 20
159.4861302505
 40
3.1874741699
100
AcDbArc
 50
20.3058412279
 51
68.9183684166
  0
ARC
  5
3E9
100
AcDbEntity
  8
10_ALL_FEATURES
100
AcDbCircle
 62
7
  6
CONTINUOUS
 10
195.3438943493
 20
171.0551918359
 40
3.166771052
100
AcDbArc
 50
20.4216164644
 51
79.0472478459
  0
ARC
  5
3EA
100
AcDbEntity
  8
10_ALL_FEATURES
100
AcDbCircle
 62
7
  6
CONTINUOUS
 10
197.3830726405
 20
165.4524642915
 40
3.1501703065
100
AcDbArc
 50
20.370374498
 51
74.7590319018
  0
ARC
  5
3EB
100
AcDbEntity
  8
10_ALL_FEATURES
100
AcDbCircle
 62
7
  6
CONTINUOUS
 10
195.3438396045
 20
171.0548605243
 40
3.1084682657
100
AcDbArc
 50
20.4349180354
 51
79.0476577805
  0
ARC
  5
3EC
100
AcDbEntity
  8
10_ALL_FEATURES
100
AcDbCircle
 62
7
  6
CONTINUOUS
 10
249.7116739186
 20
160.4192873322
 40
0.1011152028
100
AcDbArc
 50
343.901317785
 51
28.8001312463
  0
ARC
  5
3ED
100
AcDbEntity
  8
10_ALL_FEATURES
100
AcDbCircle
 62
9
  6
CONTINUOUS
 10
237.5761543176
 20
182.4132767785
 40
5.7873650044
100
AcDbArc
 50
96.1638257826
 51
97.2652926613
  0
ARC
  5
3EE
100
AcDbEntity
  8
10_ALL_FEATURES
100
AcDbCircle
 62
9
  6
CONTINUOUS
 10
234.4236594018
 20
178.5572806234
 40
5.7571905824
100
AcDbArc
 50
96.1049031746
 51
97.1530349892
  0
ARC
  5
3EF
100
AcDbEntity
  8
10_ALL_FEATURES
100
AcDbCircle
 62
9
  6
CONTINUOUS
 10
237.4150501422
 20
182.6433408772
 40
5.3985782353
100
AcDbArc
 50
94.7953302781
 51
95.9420942309
  0
ARC
  5
3F0
100
AcDbEntity
  8
10_ALL_FEATURES
100
AcDbCircle
 62
9
  6
CONTINUOUS
 10
234.2637559973
 20
178.7857660832
 40
5.3700972846
100
AcDbArc
 50
94.7341293692
 51
95.8256287974
  0
ARC
  5
3F1
100
AcDbEntity
  8
10_ALL_FEATURES
100
AcDbCircle
 62
7
  6
CONTINUOUS
 10
193.2785681847
 20
176.45220392
 40
3.1216241764
100
AcDbArc
 50
17.4979529195
 51
82.4786644378
  0
ARC
  5
3F2
100
AcDbEntity
  8
10_ALL_FEATURES
100
AcDbCircle
 62
7
  6
CONTINUOUS
 10
193.2785261751
 20
176.4518132132
 40
3.0618697057
100
AcDbArc
 50
17.5144332
 51
82.4790205425
  0
ARC
  5
3F3
100
AcDbEntity
  8
10_ALL_FEATURES
100
AcDbCircle
 62
7
  6
CONTINUOUS
 10
238.4602685839
 20
186.7862579576
 40
2.1172529474
100
AcDbArc
 50
49.6202391675
 51
139.7527205908
  0
ARC
  5
3F4
100
AcDbEntity
  8
10_ALL_FEATURES
100
AcDbCircle
 62
7
  6
CONTINUOUS
 10
235.3150715753
 20
182.9024000281
 40
2.1109354304
100
AcDbArc
 50
49.5218864681
 51
139.6311032037
  0
ARC
  5
3F5
100
AcDbEntity
  8
10_ALL_FEATURES
100
AcDbCircle
 62
7
  6
CONTINUOUS
 10
232.1694537045
 20
179.0179679196
 40
2.0962358189
100
AcDbArc
 50
49.4113158559
 51
139.2373073394
  0
ARC
  5
3F6
100
AcDbEntity
  8
10_ALL_FEATURES
100
AcDbCircle
 62
7
  6
CONTINUOUS
 10
238.4599430171
 20
186.7859014107
 40
2.0429293221
100
AcDbArc
 50
49.621690504
 51
137.4579644391
  0
ARC
  5
3F7
100
AcDbEntity
  8
10_ALL_FEATURES
100
AcDbCircle
 62
7
  6
CONTINUOUS
 10
235.3148567775
 20
182.9021143104
 40
2.0405912698
100
AcDbArc
 50
49.5242329248
 51
137.457960607
  0
ARC
  5
3F8
100
AcDbEntity
  8
10_ALL_FEATURES
100
AcDbCircle
 62
7
  6
CONTINUOUS
 10
232.1693046798
 20
179.0177734358
 40
2.0290658028
100
AcDbArc
 50
49.4133011534
 51
137.142136339
  0
ARC
  5
3F9
100
AcDbEntity
  8
10_ALL_FEATURES
100
AcDbCircle
 62
7
  6
CONTINUOUS
 10
232.0102645082
 20
210.1791095957
 40
0.5018161405
100
AcDbArc
 50
0.1997208121
 51
90.0645279113
  0
ARC
  5
3FA
100
AcDbEntity
  8
10_ALL_FEATURES
100
AcDbCircle
 62
9
  6
CONTINUOUS
 10
233.0999997969
 20
208.3523832993
 40
0.5001348385
100
AcDbArc
 50
180.0238459304
 51
269.9761514111
  0
ARC
  5
3FB
100
AcDbEntity
  8
10_ALL_FEATURES
100
AcDbCircle
 62
9
  6
CONTINUOUS
 10
232.0999032395
 20
210.1808995459
 40
0.4999619165
100
AcDbArc
 50
359.9953323416
 51
89.9953316799
  0
ARC
  5
3FC
100
AcDbEntity
  8
10_ALL_FEATURES
100
AcDbCircle
 62
7
  6
CONTINUOUS
 10
418.9981732321
 20
121.875562496
 40
116.9705179521
100
AcDbArc
 50
182.9862546573
 51
184.618073419
  0
ARC
  5
3FD
100
AcDbEntity
  8
10_ALL_FEATURES
100
AcDbCircle
 62
7
  6
CONTINUOUS
 10
418.7822295678
 20
129.9817134753
 40
116.7541199044
100
AcDbArc
 50
175.3804131172
 51
177.0152578719
  0
ARC
  5
3FE
100
AcDbEntity
  8
10_ALL_FEATURES
100
AcDbCircle
 62
7
  6
CONTINUOUS
 10
417.3294179221
 20
125.9214622262
 40
115.5885168496
100
AcDbArc
 50
174.9674387474
 51
185.0325612526
  0
ARC
  5
3FF
100
AcDbEntity
  8
10_ALL_FEATURES
100
AcDbCircle
 62
7
  6
CONTINUOUS
 10
283.6769522962
 20
88.4525086715
 40
1.8296361909
100
AcDbArc
 50
339.067342542
 51
65.8571652932
  0
ARC
  5
400
100
AcDbEntity
  8
10_ALL_FEATURES
100
AcDbCircle
 62
9
  6
CONTINUOUS
 10
477.0246970286
 20
200.2164659756
 40
245.1128077975
100
AcDbArc
 50
177.5568274803
 51
178.0366971104
  0
ARC
  5
401
100
AcDbEntity
  8
10_ALL_FEATURES
100
AcDbCircle
 62
9
  6
CONTINUOUS
 10
423.6696258287
 20
200.402022022
 40
191.4075074125
100
AcDbArc
 50
177.0715354663
 51
177.6734310866
  0
ARC
  5
402
100
AcDbEntity
  8
10_ALL_FEATURES
100
AcDbCircle
 62
7
  6
CONTINUOUS
 10
1131.0972259744
 20
-133.0701366596
 40
1052.8620995224
100
AcDbArc
 50
168.8481647144
 51
168.9704010328
  0
ARC
  5
403
100
AcDbEntity
  8
10_ALL_FEATURES
100
AcDbCircle
 62
7
  6
CONTINUOUS
 10
1360.8333047514
 20
92.9835108139
 40
1290.1479864863
100
AcDbArc
 50
179.5924544076
 51
179.7682016426
  0
ARC
  5
404
100
AcDbEntity
  8
10_ALL_FEATURES
100
AcDbCircle
 62
9
  6
CONTINUOUS
 10
167.438130632
 20
2324.631064075
 40
2117.2293103297
100
AcDbArc
 50
269.0984938178
 51
269.2617746561
  0
ARC
  5
405
100
AcDbEntity
  8
10_ALL_FEATURES
100
AcDbCircle
 62
9
  6
CONTINUOUS
 10
206.978586232
 20
2239.3637106234
 40
2031.9533172523
100
AcDbArc
 50
270.7348001757
 51
270.9051057932
  0
ARC
  5
406
100
AcDbEntity
  8
10_ALL_FEATURES
100
AcDbCircle
 62
9
  6
CONTINUOUS
 10
162.9929292037
 20
2003.6349176639
 40
1796.1335216201
100
AcDbArc
 50
268.8267109509
 51
269.2762258788
  0
ARC
  5
407
100
AcDbEntity
  8
10_ALL_FEATURES
100
AcDbCircle
 62
9
  6
CONTINUOUS
 10
213.5502074775
 20
1801.5038224693
 40
1593.9764771072
100
AcDbArc
 50
270.6952689428
 51
271.2017942275
  0
ARC
  5
408
100
AcDbEntity
  8
10_ALL_FEATURES
100
AcDbCircle
 62
9
  6
CONTINUOUS
 10
158.0409970686
 20
1728.0494480026
 40
1520.5736888639
100
AcDbArc
 50
268.7936318587
 51
269.0988552754
  0
ARC
  5
409
100
AcDbEntity
  8
10_ALL_FEATURES
100
AcDbCircle
 62
9
  6
CONTINUOUS
 10
217.2799129258
 20
1612.5724043438
 40
1405.0775490572
100
AcDbArc
 50
270.8888361909
 51
271.2188996188
  0
SPLINE
  5
40A
100
AcDbEntity
  8
10_ALL_FEATURES
100
AcDbSpline
 62
7
  6
CONTINUOUS
 70
0
 71
3
 72
9
 73
5
 74
0
 42
0.0000001
 43
0.0000001
 44
0.0000000001
 40
0.0
 40
0.0
 40
0.0
 40
0.0
 40
0.5474645034
 40
1.0
 40
1.0
 40
1.0
 40
1.0
 10
104.3445784767
 20
321.3355529856
 30
0.0
 10
102.6964356154
 20
321.6182689197
 30
0.0
 10
99.6937338231
 20
322.1816655246
 30
0.0
 10
96.7186580126
 20
322.8830760995
 30
0.0
 10
95.3867443806
 20
323.252725439
 30
0.0
  0
SPLINE
  5
40B
100
AcDbEntity
  8
10_ALL_FEATURES
100
AcDbSpline
 62
7
  6
CONTINUOUS
 70
0
 71
3
 72
10
 73
6
 74
0
 42
0.0000001
 43
0.0000001
 44
0.0000000001
 40
0.0
 40
0.0
 40
0.0
 40
0.0
 40
0.5473504797
 40
0.7857371837
 40
1.0
 40
1.0
 40
1.0
 40
1.0
 10
101.0095954035
 20
314.8126601197
 30
0.0
 10
99.2770231417
 20
315.1428646844
 30
0.0
 10
96.7967447221
 20
315.6574888329
 30
0.0
 10
93.6704114898
 20
316.4396812398
 30
0.0
 10
92.2669665421
 20
316.8383851607
 30
0.0
 10
91.6069159487
 20
317.0409391869
 30
0.0
  0
SPLINE
  5
40C
100
AcDbEntity
  8
10_ALL_FEATURES
100
AcDbSpline
 62
7
  6
CONTINUOUS
 70
0
 71
3
 72
10
 73
6
 74
0
 42
0.0000001
 43
0.0000001
 44
0.0000000001
 40
0.0
 40
0.0
 40
0.0
 40
0.0
 40
0.5470171318
 40
0.7854726711
 40
1.0
 40
1.0
 40
1.0
 40
1.0
 10
97.679216845
 20
307.1527545515
 30
0.0
 10
95.8571112902
 20
307.5509930901
 30
0.0
 10
93.2502462111
 20
308.1714665009
 30
0.0
 10
89.971250674
 20
309.1077464838
 30
0.0
 10
88.5013619638
 20
309.5835789532
 30
0.0
 10
87.8108234953
 20
309.8247917763
 30
0.0
  0
SPLINE
  5
40D
100
AcDbEntity
  8
10_ALL_FEATURES
100
AcDbSpline
 62
7
  6
CONTINUOUS
 70
0
 71
3
 72
9
 73
5
 74
0
 42
0.0000001
 43
0.0000001
 44
0.0000000001
 40
0.0
 40
0.0
 40
0.0
 40
0.0
 40
0.4525354966
 40
1.0
 40
1.0
 40
1.0
 40
1.0
 10
277.809806441
 20
323.252725439
 30
0.0
 10
276.477892809
 20
322.8830760995
 30
0.0
 10
273.5028169985
 20
322.1816655246
 30
0.0
 10
270.5001152062
 20
321.6182689197
 30
0.0
 10
268.8519723449
 20
321.3355529856
 30
0.0
  0
SPLINE
  5
40E
100
AcDbEntity
  8
10_ALL_FEATURES
100
AcDbSpline
 62
7
  6
CONTINUOUS
 70
0
 71
3
 72
10
 73
6
 74
0
 42
0.0000001
 43
0.0000001
 44
0.0000000001
 40
0.0
 40
0.0
 40
0.0
 40
0.0
 40
0.2142628163
 40
0.4526495203
 40
1.0
 40
1.0
 40
1.0
 40
1.0
 10
281.5896348729
 20
317.0409391869
 30
0.0
 10
280.9295842795
 20
316.8383851607
 30
0.0
 10
279.5261393318
 20
316.4396812398
 30
0.0
 10
276.3998060995
 20
315.6574888329
 30
0.0
 10
273.9195276799
 20
315.1428646844
 30
0.0
 10
272.1869554181
 20
314.8126601197
 30
0.0
  0
SPLINE
  5
40F
100
AcDbEntity
  8
10_ALL_FEATURES
100
AcDbSpline
 62
7
  6
CONTINUOUS
 70
0
 71
3
 72
10
 73
6
 74
0
 42
0.0000001
 43
0.0000001
 44
0.0000000001
 40
0.0
 40
0.0
 40
0.0
 40
0.0
 40
0.2145273289
 40
0.4529828682
 40
1.0
 40
1.0
 40
1.0
 40
1.0
 10
285.3857273262
 20
309.8247917763
 30
0.0
 10
284.6951888578
 20
309.5835789532
 30
0.0
 10
283.2253001475
 20
309.1077464838
 30
0.0
 10
279.9463046105
 20
308.1714665009
 30
0.0
 10
277.3394395314
 20
307.5509930901
 30
0.0
 10
275.5173339766
 20
307.1527545515
 30
0.0
  0
SPLINE
  5
410
100
AcDbEntity
  8
10_ALL_FEATURES
100
AcDbSpline
 62
7
  6
CONTINUOUS
 70
0
 71
3
 72
11
 73
7
 74
0
 42
0.0000001
 43
0.0000001
 44
0.0000000001
 40
0.0
 40
0.0
 40
0.0
 40
0.0
 40
0.2931495091
 40
0.5503853125
 40
0.7813046035
 40
1.0
 40
1.0
 40
1.0
 40
1.0
 10
302.2467918215
 20
259.2320410921
 30
0.0
 10
302.2113305719
 20
259.1830987887
 30
0.0
 10
302.138361363
 20
259.0954394371
 30
0.0
 10
302.0129986526
 20
258.9923544916
 30
0.0
 10
301.8798972296
 20
258.9289359246
 30
0.0
 10
301.786634784
 20
258.9147521257
 30
0.0
 10
301.7415462259
 20
258.9147521256
 30
0.0
  0
SPLINE
  5
411
100
AcDbEntity
  8
10_ALL_FEATURES
100
AcDbSpline
 62
7
  6
CONTINUOUS
 70
0
 71
3
 72
12
 73
8
 74
0
 42
0.0000001
 43
0.0000001
 44
0.0000000001
 40
0.0
 40
0.0
 40
0.0
 40
0.0
 40
0.3114730899
 40
0.5178576759
 40
0.6984646582
 40
0.8552714312
 40
1.0
 40
1.0
 40
1.0
 40
1.0
 10
285.5065330995
 20
310.157623461
 30
0.0
 10
285.5072059621
 20
310.1187370858
 30
0.0
 10
285.5055353331
 20
310.0538957378
 30
0.0
 10
285.4917044407
 20
309.9675363417
 30
0.0
 10
285.4698514179
 20
309.9027527182
 30
0.0
 10
285.4357270526
 20
309.8518362151
 30
0.0
 10
285.402788002
 20
309.8307512614
 30
0.0
 10
285.3857273262
 20
309.8247917763
 30
0.0
  0
SPLINE
  5
412
100
AcDbEntity
  8
10_ALL_FEATURES
100
AcDbSpline
 62
7
  6
CONTINUOUS
 70
0
 71
3
 72
11
 73
7
 74
0
 42
0.0000001
 43
0.0000001
 44
0.0000000001
 40
0.0
 40
0.0
 40
0.0
 40
0.0
 40
0.2186973677
 40
0.4496176947
 40
0.7068529082
 40
1.0
 40
1.0
 40
1.0
 40
1.0
 10
71.4549851233
 20
258.9147521258
 30
0.0
 10
71.4098983875
 20
258.9147521258
 30
0.0
 10
71.3166399642
 20
258.9289347368
 30
0.0
 10
71.1835437157
 20
258.9923481687
 30
0.0
 10
71.058185344
 20
259.095425066
 30
0.0
 10
70.9852181656
 20
259.183077961
 30
0.0
 10
70.9497578765
 20
259.2320166556
 30
0.0
  0
SPLINE
  5
413
100
AcDbEntity
  8
10_ALL_FEATURES
100
AcDbSpline
 62
7
  6
CONTINUOUS
 70
0
 71
3
 72
11
 73
7
 74
0
 42
0.0000001
 43
0.0000001
 44
0.0000000001
 40
0.0
 40
0.0
 40
0.0
 40
0.0
 40
0.307933177
 40
0.5717380222
 40
0.7945204399
 40
1.0
 40
1.0
 40
1.0
 40
1.0
 10
281.7092695036
 20
317.3214905683
 30
0.0
 10
281.7098533841
 20
317.2881048038
 30
0.0
 10
281.7076538311
 20
317.225905257
 30
0.0
 10
281.6895495337
 20
317.1410723345
 30
0.0
 10
281.6523693239
 20
317.0736113118
 30
0.0
 10
281.6109357183
 20
317.0474759162
 30
0.0
 10
281.5896348729
 20
317.0409391869
 30
0.0
  0
SPLINE
  5
414
100
AcDbEntity
  8
10_ALL_FEATURES
100
AcDbSpline
 62
7
  6
CONTINUOUS
 70
0
 71
3
 72
11
 73
7
 74
0
 42
0.0000001
 43
0.0000001
 44
0.0000000001
 40
0.0
 40
0.0
 40
0.0
 40
0.0
 40
0.3020626163
 40
0.5601620426
 40
0.7832473591
 40
1.0
 40
1.0
 40
1.0
 40
1.0
 10
277.9291811067
 20
323.498158147
 30
0.0
 10
277.9296990597
 20
323.4686147229
 30
0.0
 10
277.9272764887
 20
323.4136137039
 30
0.0
 10
277.9084774789
 20
323.3385153603
 30
0.0
 10
277.8699143033
 20
323.2797595158
 30
0.0
 10
277.8302370932
 20
323.2583956093
 30
0.0
 10
277.809806441
 20
323.252725439
 30
0.0
  0
SPLINE
  5
415
100
AcDbEntity
  8
10_ALL_FEATURES
100
AcDbSpline
 62
7
  6
CONTINUOUS
 70
0
 71
3
 72
9
 73
5
 74
0
 42
0.0000001
 43
0.0000001
 44
0.0000000001
 40
0.0
 40
0.0
 40
0.0
 40
0.0
 40
0.2389913842
 40
1.0
 40
1.0
 40
1.0
 40
1.0
 10
98.1319830583
 20
310.6746113466
 30
0.0
 10
98.1323152074
 20
310.6557165219
 30
0.0
 10
98.131449056
 20
310.5766156624
 30
0.0
 10
98.123471941
 20
310.497734376
 30
0.0
 10
98.1151754334
 20
310.4381338861
 30
0.0
  0
SPLINE
  5
416
100
AcDbEntity
  8
10_ALL_FEATURES
100
AcDbSpline
 62
7
  6
CONTINUOUS
 70
0
 71
3
 72
9
 73
5
 74
0
 42
0.0000001
 43
0.0000001
 44
0.0000000001
 40
0.0
 40
0.0
 40
0.0
 40
0.0
 40
0.2370518803
 40
1.0
 40
1.0
 40
1.0
 40
1.0
 10
101.4531404954
 20
317.6753853889
 30
0.0
 10
101.4534104133
 20
317.6598427209
 30
0.0
 10
101.4523941094
 20
317.5942383219
 30
0.0
 10
101.4445356747
 20
317.5288962183
 30
0.0
 10
101.4364000765
 20
317.4795307143
 30
0.0
  0
SPLINE
  5
417
100
AcDbEntity
  8
10_ALL_FEATURES
100
AcDbSpline
 62
7
  6
CONTINUOUS
 70
0
 71
3
 72
9
 73
5
 74
0
 42
0.0000001
 43
0.0000001
 44
0.0000000001
 40
0.0
 40
0.0
 40
0.0
 40
0.0
 40
0.2352541181
 40
1.0
 40
1.0
 40
1.0
 40
1.0
 10
104.790163695
 20
323.7731755995
 30
0.0
 10
104.7903949735
 20
323.7598478898
 30
0.0
 10
104.7892830715
 20
323.7031582712
 30
0.0
 10
104.7814336514
 20
323.6467761654
 30
0.0
 10
104.7733550907
 20
323.6042046887
 30
0.0
  0
SPLINE
  5
418
100
AcDbEntity
  8
10_ALL_FEATURES
100
AcDbSpline
 62
7
  6
CONTINUOUS
 70
0
 71
3
 72
16
 73
12
 74
0
 42
0.0000001
 43
0.0000001
 44
0.0000000001
 40
0.0
 40
0.0
 40
0.0
 40
0.0
 40
0.0940213835
 40
0.1845799366
 40
0.2687479821
 40
0.3456905978
 40
0.4814066939
 40
0.6009902005
 40
0.7102958009
 40
0.8123260559
 40
1.0
 40
1.0
 40
1.0
 40
1.0
 10
92.4935351713
 20
271.4147521258
 30
0.0
 10
92.4118704468
 20
270.9756071153
 30
0.0
 10
92.2019547075
 20
270.1213765687
 30
0.0
 10
91.7280041794
 20
268.9310256536
 30
0.0
 10
91.1211161655
 20
267.8953421886
 30
0.0
 10
90.2336022896
 20
266.7939770446
 30
0.0
 10
89.0098695189
 20
265.7711356961
 30
0.0
 10
87.4738373028
 20
264.952759038
 30
0.0
 10
85.9855838178
 20
264.4313786365
 30
0.0
 10
84.1320325912
 20
264.0208098337
 30
0.0
 10
82.7512464619
 20
263.9147521258
 30
0.0
 10
81.8596510902
 20
263.9147521258
 30
0.0
  0
SPLINE
  5
419
100
AcDbEntity
  8
10_ALL_FEATURES
100
AcDbSpline
 62
7
  6
CONTINUOUS
 70
0
 71
3
 72
16
 73
12
 74
0
 42
0.0000001
 43
0.0000001
 44
0.0000000001
 40
0.0
 40
0.0
 40
0.0
 40
0.0
 40
0.1876713166
 40
0.2896995773
 40
0.3990034451
 40
0.5185874739
 40
0.6543057288
 40
0.7312495437
 40
0.8154188533
 40
0.9059780749
 40
1.0
 40
1.0
 40
1.0
 40
1.0
 10
291.3368997314
 20
263.9147521258
 30
0.0
 10
290.4453166994
 20
263.9147521258
 30
0.0
 10
289.0645553273
 20
264.0208188755
 30
0.0
 10
287.2110241822
 20
264.4313429555
 30
0.0
 10
285.7227892488
 20
264.952730363
 30
0.0
 10
284.1867378533
 20
265.77108079
 30
0.0
 10
282.9629932798
 20
266.7939383791
 30
0.0
 10
282.0754515676
 20
267.8953095869
 30
0.0
 10
281.4685615931
 20
268.9310098643
 30
0.0
 10
280.9945968675
 20
270.1213674777
 30
0.0
 10
280.7846808582
 20
270.9756045156
 30
0.0
 10
280.7030156503
 20
271.4147521258
 30
0.0
  0
SPLINE
  5
41A
100
AcDbEntity
  8
10_ALL_FEATURES
100
AcDbSpline
 62
7
  6
CONTINUOUS
 70
0
 71
3
 72
9
 73
5
 74
0
 42
0.0000001
 43
0.0000001
 44
0.0000000001
 40
0.0
 40
0.0
 40
0.0
 40
0.0
 40
0.2191849063
 40
1.0
 40
1.0
 40
1.0
 40
1.0
 10
70.6847174402
 20
272.4166933729
 30
0.0
 10
70.6910699537
 20
272.3579799615
 30
0.0
 10
70.7142780281
 20
272.0894839063
 30
0.0
 10
70.719213928
 20
271.819701493
 30
0.0
 10
70.7179615624
 20
271.609326369
 30
0.0
  0
SPLINE
  5
41B
100
AcDbEntity
  8
10_ALL_FEATURES
100
AcDbSpline
 62
7
  6
CONTINUOUS
 70
0
 71
3
 72
9
 73
5
 74
0
 42
0.0000001
 43
0.0000001
 44
0.0000000001
 40
0.0
 40
0.0
 40
0.0
 40
0.0
 40
0.3923368648
 40
1.0
 40
1.0
 40
1.0
 40
1.0
 10
70.7256173756
 20
272.9556869527
 30
0.0
 10
70.7254867588
 20
272.8849800766
 30
0.0
 10
70.7131128195
 20
272.704963079
 30
0.0
 10
70.6960390862
 20
272.5256196986
 30
0.0
 10
70.6847174402
 20
272.4166933729
 30
0.0
  0
SPLINE
  5
41C
100
AcDbEntity
  8
10_ALL_FEATURES
100
AcDbSpline
 62
7
  6
CONTINUOUS
 70
0
 71
3
 72
9
 73
5
 74
0
 42
0.0000001
 43
0.0000001
 44
0.0000000001
 40
0.0
 40
0.0
 40
0.0
 40
0.0
 40
0.6076636551
 40
1.0
 40
1.0
 40
1.0
 40
1.0
 10
302.511834269
 20
272.4166878124
 30
0.0
 10
302.500512376
 20
272.5256160203
 30
0.0
 10
302.483438277
 20
272.7049623453
 30
0.0
 10
302.4710640065
 20
272.8849823015
 30
0.0
 10
302.4709333685
 20
272.9556902486
 30
0.0
  0
SPLINE
  5
41D
100
AcDbEntity
  8
10_ALL_FEATURES
100
AcDbSpline
 62
7
  6
CONTINUOUS
 70
0
 71
3
 72
9
 73
5
 74
0
 42
0.0000001
 43
0.0000001
 44
0.0000000001
 40
0.0
 40
0.0
 40
0.0
 40
0.0
 40
0.2796901745
 40
1.0
 40
1.0
 40
1.0
 40
1.0
 10
302.4785912913
 20
271.6093134475
 30
0.0
 10
302.4781425989
 20
271.6846671426
 30
0.0
 10
302.4792684827
 20
271.9540430802
 30
0.0
 10
302.4909592886
 20
272.2237455876
 30
0.0
 10
302.511834269
 20
272.4166878124
 30
0.0
  0
SPLINE
  5
41E
100
AcDbEntity
  8
10_ALL_FEATURES
100
AcDbSpline
 62
7
  6
CONTINUOUS
 70
0
 71
3
 72
13
 73
9
 74
0
 42
0.0000001
 43
0.0000001
 44
0.0000000001
 40
0.0
 40
0.0
 40
0.0
 40
0.0
 40
0.1151985842
 40
0.2333658057
 40
0.3549071065
 40
0.4797719552
 40
0.7367535013
 40
1.0
 40
1.0
 40
1.0
 40
1.0
 10
107.3847766018
 20
258.9147521258
 30
0.0
 10
107.7967671
 20
258.9147521258
 30
0.0
 10
108.6335840473
 20
259.0012933258
 30
0.0
 10
109.853062808
 20
259.3792536052
 30
0.0
 10
111.0110516583
 20
259.9948994334
 30
0.0
 10
112.4310883621
 20
261.11475594
 30
0.0
 10
113.8444691357
 20
262.995108119
 30
0.0
 10
114.4414638425
 20
264.7958213306
 30
0.0
 10
114.5938456352
 20
265.7248691992
 30
0.0
  0
SPLINE
  5
41F
100
AcDbEntity
  8
10_ALL_FEATURES
100
AcDbSpline
 62
7
  6
CONTINUOUS
 70
0
 71
3
 72
13
 73
9
 74
0
 42
0.0000001
 43
0.0000001
 44
0.0000000001
 40
0.0
 40
0.0
 40
0.0
 40
0.0
 40
0.2632464987
 40
0.5202280448
 40
0.6450928935
 40
0.7666341943
 40
0.8848014158
 40
1.0
 40
1.0
 40
1.0
 40
1.0
 10
258.6027051864
 20
265.7248691991
 30
0.0
 10
258.7550869791
 20
264.7958213305
 30
0.0
 10
259.3520816859
 20
262.9951081189
 30
0.0
 10
260.7654624596
 20
261.11475594
 30
0.0
 10
262.1854991634
 20
259.9948994333
 30
0.0
 10
263.3434880137
 20
259.3792536052
 30
0.0
 10
264.5629667743
 20
259.0012933258
 30
0.0
 10
265.3997837216
 20
258.9147521258
 30
0.0
 10
265.8117742198
 20
258.9147521258
 30
0.0
  0
SPLINE
  5
420
100
AcDbEntity
  8
10_ALL_FEATURES
100
AcDbSpline
 62
7
  6
CONTINUOUS
 70
0
 71
3
 72
9
 73
5
 74
0
 42
0.0000001
 43
0.0000001
 44
0.0000000001
 40
0.0
 40
0.0
 40
0.0
 40
0.0
 40
0.3856096406
 40
1.0
 40
1.0
 40
1.0
 40
1.0
 10
302.4679809248
 20
274.3153459336
 30
0.0
 10
302.4677692263
 20
274.4011199074
 30
0.0
 10
302.4495736403
 20
274.6231945706
 30
0.0
 10
302.4245292649
 20
274.8441085935
 30
0.0
 10
302.4073965652
 20
274.979694189
 30
0.0
  0
LINE
  5
421
100
AcDbEntity
  8
10_ALL_FEATURES
100
AcDbLine
 62
7
  6
CONTINUOUS
 10
302.4679811301
 20
274.3153460286
 11
302.4709332334
 21
272.9556902247
  0
LINE
  5
422
100
AcDbEntity
  8
10_ALL_FEATURES
100
AcDbLine
 62
7
  6
CONTINUOUS
 10
70.7256175105
 20
272.9556869288
 11
70.7285694654
 21
274.315344486
  0
SPLINE
  5
423
100
AcDbEntity
  8
10_ALL_FEATURES
100
AcDbSpline
 62
7
  6
CONTINUOUS
 70
0
 71
3
 72
9
 73
5
 74
0
 42
0.0000001
 43
0.0000001
 44
0.0000000001
 40
0.0
 40
0.0
 40
0.0
 40
0.0
 40
0.6143901284
 40
1.0
 40
1.0
 40
1.0
 40
1.0
 10
70.789153998
 20
274.9796921185
 30
0.0
 10
70.7720213388
 20
274.8441066905
 30
0.0
 10
70.7469770242
 20
274.6231928616
 30
0.0
 10
70.7287813411
 20
274.4011183956
 30
0.0
 10
70.7285696803
 20
274.3153444456
 30
0.0
  0
SPLINE
  5
424
100
AcDbEntity
  8
10_ALL_FEATURES
100
AcDbSpline
 62
7
  6
CONTINUOUS
 70
0
 71
3
 72
9
 73
5
 74
0
 42
0.0000001
 43
0.0000001
 44
0.0000000001
 40
0.0
 40
0.0
 40
0.0
 40
0.0
 40
0.2234514247
 40
1.0
 40
1.0
 40
1.0
 40
1.0
 10
71.0100567708
 20
276.7661785613
 30
0.0
 10
70.9944137123
 20
276.6330163008
 30
0.0
 10
70.9229162286
 20
276.0372574974
 30
0.0
 10
70.8475678613
 20
275.4419710099
 30
0.0
 10
70.7891541641
 20
274.9796932356
 30
0.0
  0
SPLINE
  5
425
100
AcDbEntity
  8
10_ALL_FEATURES
100
AcDbSpline
 62
7
  6
CONTINUOUS
 70
0
 71
3
 72
9
 73
5
 74
0
 42
0.0000001
 43
0.0000001
 44
0.0000000001
 40
0.0
 40
0.0
 40
0.0
 40
0.0
 40
0.276125215
 40
1.0
 40
1.0
 40
1.0
 40
1.0
 10
302.4073964565
 20
274.9796949131
 30
0.0
 10
302.3866257503
 20
275.1440713531
 30
0.0
 10
302.3114891684
 20
275.7393772854
 30
0.0
 10
302.2371699084
 20
276.3347979742
 30
0.0
 10
302.1864940508
 20
276.7661785613
 30
0.0
  0
SPLINE
  5
426
100
AcDbEntity
  8
10_ALL_FEATURES
100
AcDbSpline
 62
7
  6
CONTINUOUS
 70
0
 71
3
 72
16
 73
12
 74
0
 42
0.0000001
 43
0.0000001
 44
0.0000000001
 40
0.0
 40
0.0
 40
0.0
 40
0.0
 40
0.0444209722
 40
0.0724689588
 40
0.1061711544
 40
0.1927366279
 40
0.3060676565
 40
0.4455394404
 40
0.6093942747
 40
0.7952145664
 40
1.0
 40
1.0
 40
1.0
 40
1.0
 10
302.0806314645
 20
263.9147521258
 30
0.0
 10
302.1125404664
 20
263.9147521258
 30
0.0
 10
302.1643926415
 20
263.938878193
 30
0.0
 10
302.2154733976
 20
263.9954210188
 30
0.0
 10
302.2730432257
 20
264.0857402045
 30
0.0
 10
302.3340501656
 20
264.2432247257
 30
0.0
 10
302.3932712615
 20
264.4799182314
 30
0.0
 10
302.4409725621
 20
264.7757143686
 30
0.0
 10
302.4760303534
 20
265.1254641168
 30
0.0
 10
302.4970688247
 20
265.5233195163
 30
0.0
 10
302.5010111026
 20
265.803944689
 30
0.0
 10
302.5006905222
 20
265.9510482516
 30
0.0
  0
SPLINE
  5
427
100
AcDbEntity
  8
10_ALL_FEATURES
100
AcDbSpline
 62
7
  6
CONTINUOUS
 70
0
 71
3
 72
16
 73
12
 74
0
 42
0.0000001
 43
0.0000001
 44
0.0000000001
 40
0.0
 40
0.0
 40
0.0
 40
0.0
 40
0.2047854887
 40
0.3906057647
 40
0.5544605428
 40
0.6939322576
 40
0.8072632299
 40
0.8938286843
 40
0.9275308925
 40
0.9555789102
 40
1.0
 40
1.0
 40
1.0
 40
1.0
 10
70.6958684413
 20
265.9510325468
 30
0.0
 10
70.6955480387
 20
265.8039300139
 30
0.0
 10
70.6994906221
 20
265.5233068579
 30
0.0
 10
70.7205294243
 20
265.1254543884
 30
0.0
 10
70.7555874006
 20
264.7757073285
 30
0.0
 10
70.8032887534
 20
264.4799135372
 30
0.0
 10
70.8625097773
 20
264.2432219477
 30
0.0
 10
70.9235165744
 20
264.0857387304
 30
0.0
 10
70.9810862003
 20
263.9954203193
 30
0.0
 10
71.0321668115
 20
263.9388779439
 30
0.0
 10
71.0840187372
 20
263.9147521258
 30
0.0
 10
71.1159275916
 20
263.9147521258
 30
0.0
  0
SPLINE
  5
428
100
AcDbEntity
  8
10_ALL_FEATURES
100
AcDbSpline
 62
7
  6
CONTINUOUS
 70
0
 71
3
 72
11
 73
7
 74
0
 42
0.0000001
 43
0.0000001
 44
0.0000000001
 40
0.0
 40
0.0
 40
0.0
 40
0.0
 40
0.3152408961
 40
0.5935740586
 40
0.8244599539
 40
1.0
 40
1.0
 40
1.0
 40
1.0
 10
302.5032304945
 20
261.5197815389
 30
0.0
 10
302.5029864274
 20
261.2770214064
 30
0.0
 10
302.4924811128
 20
260.8198662237
 30
0.0
 10
302.4442764658
 20
260.1863073901
 30
0.0
 10
302.3682767477
 20
259.6642979489
 30
0.0
 10
302.2931822316
 20
259.3590114079
 30
0.0
 10
302.2467918215
 20
259.2320410921
 30
0.0
  0
SPLINE
  5
429
100
AcDbEntity
  8
10_ALL_FEATURES
100
AcDbSpline
 62
7
  6
CONTINUOUS
 70
0
 71
3
 72
11
 73
7
 74
0
 42
0.0000001
 43
0.0000001
 44
0.0000000001
 40
0.0
 40
0.0
 40
0.0
 40
0.0
 40
0.1755375412
 40
0.4064227679
 40
0.6847569038
 40
1.0
 40
1.0
 40
1.0
 40
1.0
 10
70.9497578765
 20
259.2320166556
 30
0.0
 10
70.9033656144
 20
259.3589857659
 30
0.0
 10
70.8282685837
 20
259.6642727804
 30
0.0
 10
70.7522663915
 20
260.186285768
 30
0.0
 10
70.7040600781
 20
260.8198532055
 30
0.0
 10
70.6935543815
 20
261.2770156726
 30
0.0
 10
70.6933102905
 20
261.5197800716
 30
0.0
  0
SPLINE
  5
42A
100
AcDbEntity
  8
10_ALL_FEATURES
100
AcDbSpline
 62
7
  6
CONTINUOUS
 70
0
 71
3
 72
9
 73
5
 74
0
 42
0.0000001
 43
0.0000001
 44
0.0000000001
 40
0.0
 40
0.0
 40
0.0
 40
0.0
 40
0.2531702486
 40
1.0
 40
1.0
 40
1.0
 40
1.0
 10
240.8774552104
 20
302.6783390823
 30
0.0
 10
240.8487769914
 20
302.7102610226
 30
0.0
 10
240.7334895476
 20
302.8345167198
 30
0.0
 10
240.6103770234
 20
302.9516064942
 30
0.0
 10
240.5139461086
 20
303.0336146461
 30
0.0
  0
SPLINE
  5
42B
100
AcDbEntity
  8
10_ALL_FEATURES
100
AcDbSpline
 62
7
  6
CONTINUOUS
 70
0
 71
3
 72
9
 73
5
 74
0
 42
0.0000001
 43
0.0000001
 44
0.0000000001
 40
0.0
 40
0.0
 40
0.0
 40
0.0
 40
0.2527725246
 40
1.0
 40
1.0
 40
1.0
 40
1.0
 10
143.4874826855
 20
312.7838978915
 30
0.0
 10
143.458656983
 20
312.7627883887
 30
0.0
 10
143.3458812726
 20
312.6775742053
 30
0.0
 10
143.2380824052
 20
312.58571081
 30
0.0
 10
143.161234243
 20
312.5132568997
 30
0.0
  0
SPLINE
  5
42C
100
AcDbEntity
  8
10_ALL_FEATURES
100
AcDbSpline
 62
7
  6
CONTINUOUS
 70
0
 71
3
 72
9
 73
5
 74
0
 42
0.0000001
 43
0.0000001
 44
0.0000000001
 40
0.0
 40
0.0
 40
0.0
 40
0.0
 40
0.2500558453
 40
1.0
 40
1.0
 40
1.0
 40
1.0
 10
239.3373266159
 20
303.4147521258
 30
0.0
 10
239.4414383117
 20
303.4147519772
 30
0.0
 10
239.8554461201
 20
303.3865698067
 30
0.0
 10
240.276087568
 20
303.2358976957
 30
0.0
 10
240.5139461108
 20
303.0336146481
 30
0.0
  0
SPLINE
  5
42D
100
AcDbEntity
  8
10_ALL_FEATURES
100
AcDbSpline
 62
7
  6
CONTINUOUS
 70
0
 71
3
 72
9
 73
5
 74
0
 42
0.0000001
 43
0.0000001
 44
0.0000000001
 40
0.0
 40
0.0
 40
0.0
 40
0.0
 40
0.2460292642
 40
1.0
 40
1.0
 40
1.0
 40
1.0
 10
230.0353165652
 20
312.5132575527
 30
0.0
 10
230.0100135967
 20
312.5371137086
 30
0.0
 10
229.9055356872
 20
312.632336522
 30
0.0
 10
229.7950503559
 20
312.720931702
 30
0.0
 10
229.7090681361
 20
312.7838978915
 30
0.0
  0
SPLINE
  5
42E
100
AcDbEntity
  8
10_ALL_FEATURES
100
AcDbSpline
 62
7
  6
CONTINUOUS
 70
0
 71
3
 72
9
 73
5
 74
0
 42
0.0000001
 43
0.0000001
 44
0.0000000001
 40
0.0
 40
0.0
 40
0.0
 40
0.0
 40
0.250159879
 40
1.0
 40
1.0
 40
1.0
 40
1.0
 10
230.4961787748
 20
311.3204815742
 30
0.0
 10
230.4942943973
 20
311.428430212
 30
0.0
 10
230.4549047873
 20
311.8562417025
 30
0.0
 10
230.2707828131
 20
312.2912551602
 30
0.0
 10
230.0353165655
 20
312.5132575531
 30
0.0
  0
SPLINE
  5
42F
100
AcDbEntity
  8
10_ALL_FEATURES
100
AcDbSpline
 62
7
  6
CONTINUOUS
 70
0
 71
3
 72
9
 73
5
 74
0
 42
0.0000001
 43
0.0000001
 44
0.0000000001
 40
0.0
 40
0.0
 40
0.0
 40
0.0
 40
0.2501594994
 40
1.0
 40
1.0
 40
1.0
 40
1.0
 10
142.7003720468
 20
311.3204815742
 30
0.0
 10
142.7022563227
 20
311.4284300026
 30
0.0
 10
142.741645732
 20
311.8562413323
 30
0.0
 10
142.9257678126
 20
312.291254669
 30
0.0
 10
143.1612342419
 20
312.5132569013
 30
0.0
  0
SPLINE
  5
430
100
AcDbEntity
  8
10_ALL_FEATURES
100
AcDbSpline
 62
7
  6
CONTINUOUS
 70
0
 71
3
 72
9
 73
5
 74
0
 42
0.0000001
 43
0.0000001
 44
0.0000000001
 40
0.0
 40
0.0
 40
0.0
 40
0.0
 40
0.245432977
 40
1.0
 40
1.0
 40
1.0
 40
1.0
 10
132.6826039714
 20
303.0336146434
 30
0.0
 10
132.6509130857
 20
303.0066635695
 30
0.0
 10
132.5238609447
 20
302.8944336437
 30
0.0
 10
132.4045715535
 20
302.7734832395
 30
0.0
 10
132.3190956111
 20
302.6783390823
 30
0.0
  0
SPLINE
  5
431
100
AcDbEntity
  8
10_ALL_FEATURES
100
AcDbSpline
 62
7
  6
CONTINUOUS
 70
0
 71
3
 72
9
 73
5
 74
0
 42
0.0000001
 43
0.0000001
 44
0.0000000001
 40
0.0
 40
0.0
 40
0.0
 40
0.0
 40
0.2500553249
 40
1.0
 40
1.0
 40
1.0
 40
1.0
 10
133.8592242057
 20
303.4147521258
 30
0.0
 10
133.7551126643
 20
303.4147520788
 30
0.0
 10
133.3411046085
 20
303.3865702006
 30
0.0
 10
132.9204625971
 20
303.2358982155
 30
0.0
 10
132.6826039692
 20
303.0336146454
 30
0.0
  0
SPLINE
  5
432
100
AcDbEntity
  8
10_ALL_FEATURES
100
AcDbSpline
 62
7
  6
CONTINUOUS
 70
0
 71
3
 72
9
 73
5
 74
0
 42
0.0000001
 43
0.0000001
 44
0.0000000001
 40
0.0
 40
0.0
 40
0.0
 40
0.0
 40
0.2601843373
 40
1.0
 40
1.0
 40
1.0
 40
1.0
 10
275.0813753882
 20
310.4381338861
 30
0.0
 10
275.0785391935
 20
310.4585085545
 30
0.0
 10
275.0687303571
 20
310.5369426435
 30
0.0
 10
275.0635396979
 20
310.6161278542
 30
0.0
 10
275.064567765
 20
310.6746113453
 30
0.0
  0
SPLINE
  5
433
100
AcDbEntity
  8
10_ALL_FEATURES
100
AcDbSpline
 62
7
  6
CONTINUOUS
 70
0
 71
3
 72
9
 73
5
 74
0
 42
0.0000001
 43
0.0000001
 44
0.0000000001
 40
0.0
 40
0.0
 40
0.0
 40
0.0
 40
0.2622452095
 40
1.0
 40
1.0
 40
1.0
 40
1.0
 10
271.7601507451
 20
317.4795307143
 30
0.0
 10
271.7573547417
 20
317.4964964139
 30
0.0
 10
271.7477400346
 20
317.5613336254
 30
0.0
 10
271.7425704098
 20
317.627020539
 30
0.0
 10
271.7434103259
 20
317.6753853891
 30
0.0
  0
SPLINE
  5
434
100
AcDbEntity
  8
10_ALL_FEATURES
100
AcDbSpline
 62
7
  6
CONTINUOUS
 70
0
 71
3
 72
9
 73
5
 74
0
 42
0.0000001
 43
0.0000001
 44
0.0000000001
 40
0.0
 40
0.0
 40
0.0
 40
0.0
 40
0.2641904553
 40
1.0
 40
1.0
 40
1.0
 40
1.0
 10
268.4231957308
 20
323.6042046887
 30
0.0
 10
268.4204054142
 20
323.6189087807
 30
0.0
 10
268.4108678139
 20
323.674727429
 30
0.0
 10
268.4056638855
 20
323.7314979497
 30
0.0
 10
268.406387126
 20
323.7731755999
 30
0.0
  0
SPLINE
  5
435
100
AcDbEntity
  8
10_ALL_FEATURES
100
AcDbSpline
 62
7
  6
CONTINUOUS
 70
0
 71
3
 72
11
 73
7
 74
0
 42
0.0000001
 43
0.0000001
 44
0.0000000001
 40
0.0
 40
0.0
 40
0.0
 40
0.0
 40
0.1940288577
 40
0.3582973998
 40
0.5479240771
 40
1.0
 40
1.0
 40
1.0
 40
1.0
 10
87.8108234953
 20
309.8247917763
 30
0.0
 10
87.7879892356
 20
309.832768039
 30
0.0
 10
87.7503314975
 20
309.8617952143
 30
0.0
 10
87.7182990042
 20
309.9229500645
 30
0.0
 10
87.6921059724
 20
310.0204836174
 30
0.0
 10
87.6890425776
 20
310.1012774507
 30
0.0
 10
87.6900181779
 20
310.1576239413
 30
0.0
  0
SPLINE
  5
436
100
AcDbEntity
  8
10_ALL_FEATURES
100
AcDbSpline
 62
7
  6
CONTINUOUS
 70
0
 71
3
 72
11
 73
7
 74
0
 42
0.0000001
 43
0.0000001
 44
0.0000000001
 40
0.0
 40
0.0
 40
0.0
 40
0.0
 40
0.2054790853
 40
0.4282596534
 40
0.6920617143
 40
1.0
 40
1.0
 40
1.0
 40
1.0
 10
91.6069159487
 20
317.0409391869
 30
0.0
 10
91.5856151374
 20
317.0474759057
 30
0.0
 10
91.5441811526
 20
317.0736104396
 30
0.0
 10
91.5070021874
 20
317.1410717232
 30
0.0
 10
91.4888967
 20
317.2259043224
 30
0.0
 10
91.48669763
 20
317.2881042808
 30
0.0
 10
91.4872813728
 20
317.3214906254
 30
0.0
  0
SPLINE
  5
437
100
AcDbEntity
  8
10_ALL_FEATURES
100
AcDbSpline
 62
7
  6
CONTINUOUS
 70
0
 71
3
 72
11
 73
7
 74
0
 42
0.0000001
 43
0.0000001
 44
0.0000000001
 40
0.0
 40
0.0
 40
0.0
 40
0.0
 40
0.2167527092
 40
0.4398379563
 40
0.6979371789
 40
1.0
 40
1.0
 40
1.0
 40
1.0
 10
95.3867443806
 20
323.252725439
 30
0.0
 10
95.3663137207
 20
323.2583956114
 30
0.0
 10
95.3266365004
 20
323.2797595107
 30
0.0
 10
95.2880733514
 20
323.3385153538
 30
0.0
 10
95.2692743217
 20
323.4136136888
 30
0.0
 10
95.2668517793
 20
323.4686147144
 30
0.0
 10
95.2673697285
 20
323.4981581605
 30
0.0
  0
SPLINE
  5
438
100
AcDbEntity
  8
10_ALL_FEATURES
100
AcDbSpline
 62
9
  6
CONTINUOUS
 70
0
 71
3
 72
10
 73
6
 74
0
 42
0.0000001
 43
0.0000001
 44
0.0000000001
 40
0.0
 40
0.0
 40
0.0
 40
0.0
 40
0.2499103048
 40
0.5000327381
 40
1.0
 40
1.0
 40
1.0
 40
1.0
 10
142.640613519
 20
320.069393969
 30
0.0
 10
142.4676458165
 20
319.7636007884
 30
0.0
 10
142.2047658634
 20
319.1049316847
 30
0.0
 10
141.8810333792
 20
317.7352074753
 30
0.0
 10
141.7940282793
 20
316.6775195898
 30
0.0
 10
141.7817653629
 20
315.9747759925
 30
0.0
  0
SPLINE
  5
439
100
AcDbEntity
  8
10_ALL_FEATURES
100
AcDbSpline
 62
7
  6
CONTINUOUS
 70
0
 71
3
 72
9
 73
5
 74
0
 42
0.0000001
 43
0.0000001
 44
0.0000000001
 40
0.0
 40
0.0
 40
0.0
 40
0.0
 40
0.249903072
 40
1.0
 40
1.0
 40
1.0
 40
1.0
 10
233.8496025221
 20
327.8235256875
 30
0.0
 10
234.3075081359
 20
327.4979716463
 30
0.0
 10
236.1398771625
 20
326.195301254
 30
0.0
 10
237.9723893916
 20
324.8928322942
 30
0.0
 10
239.3470316097
 20
323.91596751
 30
0.0
  0
SPLINE
  5
43A
100
AcDbEntity
  8
10_ALL_FEATURES
100
AcDbSpline
 62
7
  6
CONTINUOUS
 70
0
 71
3
 72
11
 73
7
 74
0
 42
0.0000001
 43
0.0000001
 44
0.0000000001
 40
0.0
 40
0.0
 40
0.0
 40
0.0
 40
0.247911306
 40
0.5063209869
 40
0.7600245681
 40
1.0
 40
1.0
 40
1.0
 40
1.0
 10
233.9778244775
 20
314.223616259
 30
0.0
 10
233.9780561606
 20
314.1895952031
 30
0.0
 10
233.9976450171
 20
314.1190213773
 30
0.0
 10
234.075752946
 20
314.042858161
 30
0.0
 10
234.1799280241
 20
314.0152711395
 30
0.0
 10
234.2488010504
 20
314.0331912206
 30
0.0
 10
234.2775488512
 20
314.0492576927
 30
0.0
  0
SPLINE
  5
43B
100
AcDbEntity
  8
10_ALL_FEATURES
100
AcDbSpline
 62
7
  6
CONTINUOUS
 70
0
 71
3
 72
11
 73
7
 74
0
 42
0.0000001
 43
0.0000001
 44
0.0000000001
 40
0.0
 40
0.0
 40
0.0
 40
0.0
 40
0.2607128246
 40
0.5139315437
 40
0.7596123985
 40
1.0
 40
1.0
 40
1.0
 40
1.0
 10
238.9459233214
 20
313.9714754654
 30
0.0
 10
238.5823246757
 20
314.1890520937
 30
0.0
 10
237.8029591191
 20
314.5219678142
 30
0.0
 10
236.5658593191
 20
314.6901926898
 30
0.0
 10
235.3608891155
 20
314.5382961876
 30
0.0
 10
234.6185932852
 20
314.2398594472
 30
0.0
 10
234.2775489063
 20
314.0492577128
 30
0.0
  0
SPLINE
  5
43C
100
AcDbEntity
  8
10_ALL_FEATURES
100
AcDbSpline
 62
7
  6
CONTINUOUS
 70
0
 71
3
 72
11
 73
7
 74
0
 42
0.0000001
 43
0.0000001
 44
0.0000000001
 40
0.0
 40
0.0
 40
0.0
 40
0.0
 40
0.2853668935
 40
0.5380554084
 40
0.766162795
 40
1.0
 40
1.0
 40
1.0
 40
1.0
 10
268.406387126
 20
323.7731755999
 30
0.0
 10
268.4068217629
 20
323.7982220999
 30
0.0
 10
268.4108341707
 20
323.8455351147
 30
0.0
 10
268.4309653201
 20
323.9105711222
 30
0.0
 10
268.4709691999
 20
323.9616612741
 30
0.0
 10
268.5106025316
 20
323.9773807764
 30
0.0
 10
268.5308602152
 20
323.9806940984
 30
0.0
  0
SPLINE
  5
43D
100
AcDbEntity
  8
10_ALL_FEATURES
100
AcDbSpline
 62
7
  6
CONTINUOUS
 70
0
 71
3
 72
11
 73
7
 74
0
 42
0.0000001
 43
0.0000001
 44
0.0000000001
 40
0.0
 40
0.0
 40
0.0
 40
0.0
 40
0.2683236268
 40
0.5174333168
 40
0.7560681799
 40
1.0
 40
1.0
 40
1.0
 40
1.0
 10
238.9459233452
 20
313.9714754553
 30
0.0
 10
238.9776900918
 20
313.9524663049
 30
0.0
 10
239.0505565887
 20
313.9323434417
 30
0.0
 10
239.15573464
 20
313.9599461563
 30
0.0
 10
239.2318998155
 20
314.0326498322
 30
0.0
 10
239.2510581457
 20
314.1004504234
 30
0.0
 10
239.2513204442
 20
314.1341040405
 30
0.0
  0
SPLINE
  5
43E
100
AcDbEntity
  8
10_ALL_FEATURES
100
AcDbSpline
 62
7
  6
CONTINUOUS
 70
0
 71
3
 72
11
 73
7
 74
0
 42
0.0000001
 43
0.0000001
 44
0.0000000001
 40
0.0
 40
0.0
 40
0.0
 40
0.0
 40
0.2607128247
 40
0.5139315438
 40
0.7596123986
 40
1.0
 40
1.0
 40
1.0
 40
1.0
 10
134.2506275002
 20
313.9714754655
 30
0.0
 10
134.6142261459
 20
314.1890520938
 30
0.0
 10
135.3935917028
 20
314.5219678142
 30
0.0
 10
136.6306915029
 20
314.6901926899
 30
0.0
 10
137.8356617064
 20
314.5382961875
 30
0.0
 10
138.5779575365
 20
314.2398594472
 30
0.0
 10
138.9190019152
 20
314.0492577129
 30
0.0
  0
SPLINE
  5
43F
100
AcDbEntity
  8
10_ALL_FEATURES
100
AcDbSpline
 62
7
  6
CONTINUOUS
 70
0
 71
3
 72
11
 73
7
 74
0
 42
0.0000001
 43
0.0000001
 44
0.0000000001
 40
0.0
 40
0.0
 40
0.0
 40
0.0
 40
0.2399754292
 40
0.493679009
 40
0.7520886864
 40
1.0
 40
1.0
 40
1.0
 40
1.0
 10
138.9190019183
 20
314.0492577118
 30
0.0
 10
138.947749723
 20
314.0331912358
 30
0.0
 10
139.0166227478
 20
314.0152711101
 30
0.0
 10
139.1207978531
 20
314.0428581295
 30
0.0
 10
139.1989058016
 20
314.1190213507
 30
0.0
 10
139.2184946635
 20
314.1895951915
 30
0.0
 10
139.2187263433
 20
314.2236162544
 30
0.0
  0
SPLINE
  5
440
100
AcDbEntity
  8
10_ALL_FEATURES
100
AcDbSpline
 62
7
  6
CONTINUOUS
 70
0
 71
3
 72
10
 73
6
 74
0
 42
0.0000001
 43
0.0000001
 44
0.0000000001
 40
0.0
 40
0.0
 40
0.0
 40
0.0
 40
0.1867630321
 40
0.4205351891
 40
1.0
 40
1.0
 40
1.0
 40
1.0
 10
299.3234188832
 20
259.3531394614
 30
0.0
 10
299.3612650156
 20
259.4822109835
 30
0.0
 10
299.4241695343
 20
259.779254735
 30
0.0
 10
299.5159978099
 20
260.4938656959
 30
0.0
 10
299.5368677064
 20
261.0806352608
 30
0.0
 10
299.5371541261
 20
261.4979625544
 30
0.0
  0
SPLINE
  5
441
100
AcDbEntity
  8
10_ALL_FEATURES
100
AcDbSpline
 62
7
  6
CONTINUOUS
 70
0
 71
3
 72
10
 73
6
 74
0
 42
0.0000001
 43
0.0000001
 44
0.0000000001
 40
0.0
 40
0.0
 40
0.0
 40
0.0
 40
0.5794675739
 40
0.8132391654
 40
1.0
 40
1.0
 40
1.0
 40
1.0
 10
73.6593873845
 20
261.4979622799
 30
0.0
 10
73.6596738122
 20
261.0806275649
 30
0.0
 10
73.6805442848
 20
260.4938487005
 30
0.0
 10
73.7723760667
 20
259.7792287341
 30
0.0
 10
73.8352829182
 20
259.4821833857
 30
0.0
 10
73.8731306207
 20
259.3531121491
 30
0.0
  0
SPLINE
  5
442
100
AcDbEntity
  8
10_ALL_FEATURES
100
AcDbSpline
 62
7
  6
CONTINUOUS
 70
0
 71
3
 72
9
 73
5
 74
0
 42
0.0000001
 43
0.0000001
 44
0.0000000001
 40
0.0
 40
0.0
 40
0.0
 40
0.0
 40
0.2588997587
 40
1.0
 40
1.0
 40
1.0
 40
1.0
 10
73.6589978535
 20
263.9166604788
 30
0.0
 10
73.6589166585
 20
263.7079270375
 30
0.0
 10
73.6587270004
 20
262.9016943321
 30
0.0
 10
73.6589746981
 20
262.0954615368
 30
0.0
 10
73.6593849539
 20
261.4979624133
 30
0.0
  0
SPLINE
  5
443
100
AcDbEntity
  8
10_ALL_FEATURES
100
AcDbSpline
 62
7
  6
CONTINUOUS
 70
0
 71
3
 72
9
 73
5
 74
0
 42
0.0000001
 43
0.0000001
 44
0.0000000001
 40
0.0
 40
0.0
 40
0.0
 40
0.0
 40
0.2409982021
 40
1.0
 40
1.0
 40
1.0
 40
1.0
 10
299.5371565487
 20
261.4979626875
 30
0.0
 10
299.5372899602
 20
261.6922635944
 30
0.0
 10
299.5377384519
 20
262.4984975047
 30
0.0
 10
299.5377818052
 20
263.3047316628
 30
0.0
 10
299.5375440173
 20
263.9166646981
 30
0.0
  0
SPLINE
  5
444
100
AcDbEntity
  8
10_ALL_FEATURES
100
AcDbSpline
 62
9
  6
CONTINUOUS
 70
0
 71
3
 72
10
 73
6
 74
0
 42
0.0000001
 43
0.0000001
 44
0.0000000001
 40
0.0
 40
0.0
 40
0.0
 40
0.0
 40
0.4999672548
 40
0.750089623
 40
1.0
 40
1.0
 40
1.0
 40
1.0
 10
231.4147853583
 20
315.9747817478
 30
0.0
 10
231.4025208929
 20
316.677523131
 30
0.0
 10
231.3155404097
 20
317.7352213018
 30
0.0
 10
230.9917440687
 20
319.1049044707
 30
0.0
 10
230.7289975648
 20
319.7636458942
 30
0.0
 10
230.555942765
 20
320.0693886594
 30
0.0
  0
SPLINE
  5
445
100
AcDbEntity
  8
10_ALL_FEATURES
100
AcDbSpline
 62
7
  6
CONTINUOUS
 70
0
 71
3
 72
9
 73
5
 74
0
 42
0.0000001
 43
0.0000001
 44
0.0000000001
 40
0.0
 40
0.0
 40
0.0
 40
0.0
 40
0.249903072
 40
1.0
 40
1.0
 40
1.0
 40
1.0
 10
139.3469482994
 20
327.8235256875
 30
0.0
 10
138.8890426857
 20
327.4979716463
 30
0.0
 10
137.0566736591
 20
326.195301254
 30
0.0
 10
135.2241614299
 20
324.8928322942
 30
0.0
 10
133.8495192118
 20
323.91596751
 30
0.0
  0
SPLINE
  5
446
100
AcDbEntity
  8
10_ALL_FEATURES
100
AcDbSpline
 62
9
  6
CONTINUOUS
 70
0
 71
3
 72
10
 73
6
 74
0
 42
0.0000001
 43
0.0000001
 44
0.0000000001
 40
0.0
 40
0.0
 40
0.0
 40
0.0
 40
0.2498948905
 40
0.5000081808
 40
1.0
 40
1.0
 40
1.0
 40
1.0
 10
247.9048980816
 20
303.6452110131
 30
0.0
 10
247.5911678862
 20
303.8059743085
 30
0.0
 10
246.9219494797
 20
304.0462695214
 30
0.0
 10
245.5390354004
 20
304.332376789
 30
0.0
 10
244.4767025996
 20
304.3973116958
 30
0.0
 10
243.7713744049
 20
304.3972997194
 30
0.0
  0
SPLINE
  5
447
100
AcDbEntity
  8
10_ALL_FEATURES
100
AcDbSpline
 62
7
  6
CONTINUOUS
 70
0
 71
3
 72
11
 73
7
 74
0
 42
0.0000001
 43
0.0000001
 44
0.0000000001
 40
0.0
 40
0.0
 40
0.0
 40
0.0
 40
0.243931962
 40
0.4825671496
 40
0.7316771291
 40
1.0
 40
1.0
 40
1.0
 40
1.0
 10
133.9452303773
 20
314.134104041
 30
0.0
 10
133.9454926753
 20
314.1004504017
 30
0.0
 10
133.9646510322
 20
314.0326497355
 30
0.0
 10
134.0408163591
 20
313.9599460294
 30
0.0
 10
134.14599445
 20
313.9323434568
 30
0.0
 10
134.2188608407
 20
313.9524663664
 30
0.0
 10
134.2506275
 20
313.9714754654
 30
0.0
  0
SPLINE
  5
448
100
AcDbEntity
  8
10_ALL_FEATURES
100
AcDbSpline
 62
7
  6
CONTINUOUS
 70
0
 71
3
 72
10
 73
6
 74
0
 42
0.0000001
 43
0.0000001
 44
0.0000000001
 40
0.0
 40
0.0
 40
0.0
 40
0.0
 40
0.213199953
 40
0.4512252709
 40
1.0
 40
1.0
 40
1.0
 40
1.0
 10
92.5142211079
 20
319.8772174764
 30
0.0
 10
93.1305087677
 20
319.6983265328
 30
0.0
 10
94.4426919419
 20
319.3465508461
 30
0.0
 10
97.3729735306
 20
318.6572200456
 30
0.0
 10
99.6986931813
 20
318.2050076889
 30
0.0
 10
101.3249187189
 20
317.9154828869
 30
0.0
  0
SPLINE
  5
449
100
AcDbEntity
  8
10_ALL_FEATURES
100
AcDbSpline
 62
7
  6
CONTINUOUS
 70
0
 71
3
 72
10
 73
6
 74
0
 42
0.0000001
 43
0.0000001
 44
0.0000000001
 40
0.0
 40
0.0
 40
0.0
 40
0.0
 40
0.2449474818
 40
0.4949076425
 40
1.0
 40
1.0
 40
1.0
 40
1.0
 10
248.3239845433
 20
302.7237714188
 30
0.0
 10
248.3175767988
 20
302.8071217151
 30
0.0
 10
248.2812070148
 20
302.9738245143
 30
0.0
 10
248.1518954053
 20
303.2904954367
 30
0.0
 10
248.0102645355
 20
303.5088588213
 30
0.0
 10
247.9048605124
 20
303.6452572764
 30
0.0
  0
SPLINE
  5
44A
100
AcDbEntity
  8
10_ALL_FEATURES
100
AcDbSpline
 62
7
  6
CONTINUOUS
 70
0
 71
3
 72
10
 73
6
 74
0
 42
0.0000001
 43
0.0000001
 44
0.0000000001
 40
0.0
 40
0.0
 40
0.0
 40
0.0
 40
0.5047147116
 40
0.7548306544
 40
1.0
 40
1.0
 40
1.0
 40
1.0
 10
230.5560050444
 20
320.0693442855
 30
0.0
 10
230.4153976051
 20
320.1661617093
 30
0.0
 10
230.1913270438
 20
320.2940235244
 30
0.0
 10
229.870356883
 20
320.403134406
 30
0.0
 10
229.7031233281
 20
320.42924135
 30
0.0
 10
229.6202056452
 20
320.4304756784
 30
0.0
  0
SPLINE
  5
44B
100
AcDbEntity
  8
10_ALL_FEATURES
100
AcDbSpline
 62
9
  6
CONTINUOUS
 70
0
 71
3
 72
9
 73
5
 74
0
 42
0.0000001
 43
0.0000001
 44
0.0000000001
 40
0.0
 40
0.0
 40
0.0
 40
0.0
 40
0.2449373478
 40
1.0
 40
1.0
 40
1.0
 40
1.0
 10
229.6202056452
 20
320.4304756784
 30
0.0
 10
229.6276663496
 20
319.8061672623
 30
0.0
 10
229.6582309795
 20
317.2573190931
 30
0.0
 10
229.6874405556
 20
314.7084547917
 30
0.0
 10
229.7090681361
 20
312.7838978915
 30
0.0
  0
SPLINE
  5
44C
100
AcDbEntity
  8
10_ALL_FEATURES
100
AcDbSpline
 62
9
  6
CONTINUOUS
 70
0
 71
3
 72
9
 73
5
 74
0
 42
0.0000001
 43
0.0000001
 44
0.0000000001
 40
0.0
 40
0.0
 40
0.0
 40
0.0
 40
0.2547356188
 40
1.0
 40
1.0
 40
1.0
 40
1.0
 10
143.4874826855
 20
312.7838978915
 30
0.0
 10
143.4947789449
 20
313.4331811758
 30
0.0
 10
143.5237141674
 20
315.9820294298
 30
0.0
 10
143.552972703
 20
318.5308742128
 30
0.0
 10
143.5756754095
 20
320.4304267797
 30
0.0
  0
SPLINE
  5
44D
100
AcDbEntity
  8
10_ALL_FEATURES
100
AcDbSpline
 62
9
  6
CONTINUOUS
 70
0
 71
3
 72
8
 73
4
 74
0
 42
0.0000001
 43
0.0000001
 44
0.0000000001
 40
0.0
 40
0.0
 40
0.0
 40
0.0
 40
1.0
 40
1.0
 40
1.0
 40
1.0
 10
70.6933102904
 20
261.5197800747
 30
0.0
 10
71.6820056214
 20
261.5129225804
 30
0.0
 10
72.6706982559
 20
261.5056622674
 30
0.0
 10
73.6593873845
 20
261.497962285
 30
0.0
  0
SPLINE
  5
44E
100
AcDbEntity
  8
10_ALL_FEATURES
100
AcDbSpline
 62
9
  6
CONTINUOUS
 70
0
 71
3
 72
8
 73
4
 74
0
 42
0.0000001
 43
0.0000001
 44
0.0000000001
 40
0.0
 40
0.0
 40
0.0
 40
0.0
 40
1.0
 40
1.0
 40
1.0
 40
1.0
 10
299.5371541261
 20
261.4979625565
 30
0.0
 10
300.5258430129
 20
261.5056628923
 30
0.0
 10
301.5145354056
 20
261.5129236057
 30
0.0
 10
302.5032304945
 20
261.5197815435
 30
0.0
  0
SPLINE
  5
44F
100
AcDbEntity
  8
10_ALL_FEATURES
100
AcDbSpline
 62
7
  6
CONTINUOUS
 70
0
 71
3
 72
10
 73
6
 74
0
 42
0.0000001
 43
0.0000001
 44
0.0000000001
 40
0.0
 40
0.0
 40
0.0
 40
0.0
 40
0.245173257
 40
0.4952924507
 40
1.0
 40
1.0
 40
1.0
 40
1.0
 10
143.5756754095
 20
320.4304267797
 30
0.0
 10
143.4928110835
 20
320.4290971984
 30
0.0
 10
143.3256901159
 20
320.4030419654
 30
0.0
 10
143.0049661299
 20
320.2938505805
 30
0.0
 10
142.7810274379
 20
320.166116867
 30
0.0
 10
142.6405311586
 20
320.0693353932
 30
0.0
  0
SPLINE
  5
450
100
AcDbEntity
  8
10_ALL_FEATURES
100
AcDbSpline
 62
7
  6
CONTINUOUS
 70
0
 71
3
 72
10
 73
6
 74
0
 42
0.0000001
 43
0.0000001
 44
0.0000000001
 40
0.0
 40
0.0
 40
0.0
 40
0.0
 40
0.5050896069
 40
0.7550539543
 40
1.0
 40
1.0
 40
1.0
 40
1.0
 10
125.2917060076
 20
303.6452797068
 30
0.0
 10
125.1863942285
 20
303.5089510007
 30
0.0
 10
125.0448025106
 20
303.2907546434
 30
0.0
 10
124.9155441694
 20
302.9743294338
 30
0.0
 10
124.8789824198
 20
302.8077507195
 30
0.0
 10
124.8726937622
 20
302.7244456596
 30
0.0
  0
SPLINE
  5
451
100
AcDbEntity
  8
10_ALL_FEATURES
100
AcDbSpline
 62
9
  6
CONTINUOUS
 70
0
 71
3
 72
18
 73
14
 74
0
 42
0.0000001
 43
0.0000001
 44
0.0000000001
 40
0.0
 40
0.0
 40
0.0
 40
0.0
 40
0.1949280639
 40
0.3825087286
 40
0.5552607776
 40
0.7067312867
 40
0.8310379868
 40
0.8814790471
 40
0.9234287316
 40
0.9565165743
 40
0.98039864
 40
0.9948839743
 40
1.0
 40
1.0
 40
1.0
 40
1.0
 10
231.5654197626
 20
307.3449425001
 30
0.0
 10
231.5004348272
 20
307.3438085291
 30
0.0
 10
231.3729097095
 20
307.3417984325
 30
0.0
 10
231.1877863252
 20
307.3395289397
 30
0.0
 10
231.0171297473
 20
307.3380995838
 30
0.0
 10
230.8676120634
 20
307.3375845533
 30
0.0
 10
230.7587545614
 20
307.3378525285
 30
0.0
 10
230.6866412052
 20
307.3387125782
 30
0.0
 10
230.6445145103
 20
307.3393613119
 30
0.0
 10
230.6123212922
 20
307.3406640599
 30
0.0
 10
230.5867382913
 20
307.3410267547
 30
0.0
 10
230.5754662091
 20
307.3435915765
 30
0.0
 10
230.5656018384
 20
307.3432369251
 30
0.0
 10
230.5655720675
 20
307.3449425008
 30
0.0
  0
SPLINE
  5
452
100
AcDbEntity
  8
10_ALL_FEATURES
100
AcDbSpline
 62
9
  6
CONTINUOUS
 70
0
 71
3
 72
9
 73
5
 74
0
 42
0.0000001
 43
0.0000001
 44
0.0000000001
 40
0.0
 40
0.0
 40
0.0
 40
0.0
 40
0.2539991799
 40
1.0
 40
1.0
 40
1.0
 40
1.0
 10
132.3190956111
 20
302.6783390823
 30
0.0
 10
131.6886365418
 20
302.6823887914
 30
0.0
 10
129.2065047062
 20
302.6980944811
 30
0.0
 10
126.724371788
 20
302.7136552929
 30
0.0
 10
124.8726937622
 20
302.7244456596
 30
0.0
  0
SPLINE
  5
453
100
AcDbEntity
  8
10_ALL_FEATURES
100
AcDbSpline
 62
7
  6
CONTINUOUS
 70
0
 71
3
 72
9
 73
5
 74
0
 42
0.0000001
 43
0.0000001
 44
0.0000000001
 40
0.0
 40
0.0
 40
0.0
 40
0.0
 40
0.2608987865
 40
1.0
 40
1.0
 40
1.0
 40
1.0
 10
104.3271063299
 20
321.1684465132
 30
0.0
 10
104.3296521882
 20
321.182842832
 30
0.0
 10
104.3385720064
 20
321.2381538168
 30
0.0
 10
104.3439431977
 20
321.2941416748
 30
0.0
 10
104.3445784767
 20
321.3355529856
 30
0.0
  0
SPLINE
  5
454
100
AcDbEntity
  8
10_ALL_FEATURES
100
AcDbSpline
 62
9
  6
CONTINUOUS
 70
0
 71
3
 72
18
 73
14
 74
0
 42
0.0000001
 43
0.0000001
 44
0.0000000001
 40
0.0
 40
0.0
 40
0.0
 40
0.0
 40
0.0051122743
 40
0.0195963008
 40
0.043486194
 40
0.0765631533
 40
0.1185206459
 40
0.1689638058
 40
0.2932723218
 40
0.4447338694
 40
0.6175085036
 40
0.8050273862
 40
1.0
 40
1.0
 40
1.0
 40
1.0
 10
230.4149376631
 20
315.9747817478
 30
0.0
 10
230.4149674122
 20
315.9730774219
 30
0.0
 10
230.4248272581
 20
315.9734269399
 30
0.0
 10
230.4361013088
 20
315.9708660955
 30
0.0
 10
230.4616827044
 20
315.9705035698
 30
0.0
 10
230.4938778264
 20
315.9692003654
 30
0.0
 10
230.5360041841
 20
315.9685522938
 30
0.0
 10
230.6081214923
 20
315.9676912927
 30
0.0
 10
230.7169773503
 20
315.9674242351
 30
0.0
 10
230.8665002571
 20
315.9679386258
 30
0.0
 10
231.037140853
 20
315.9693682356
 30
0.0
 10
231.2222661157
 20
315.9716370821
 30
0.0
 10
231.349785541
 20
315.9736475173
 30
0.0
 10
231.4147853583
 20
315.9747817478
 30
0.0
  0
SPLINE
  5
455
100
AcDbEntity
  8
10_ALL_FEATURES
100
AcDbSpline
 62
9
  6
CONTINUOUS
 70
0
 71
3
 72
15
 73
11
 74
0
 42
0.0000001
 43
0.0000001
 44
0.0000000001
 40
0.0
 40
0.0
 40
0.0
 40
0.0
 40
0.0626088369
 40
0.1251146925
 40
0.2499495226
 40
0.3747932833
 40
0.4996848997
 40
0.624644585
 40
0.7496829756
 40
1.0
 40
1.0
 40
1.0
 40
1.0
 10
229.620376274
 20
320.4304586913
 30
0.0
 10
229.6814585455
 20
320.357088561
 30
0.0
 10
229.7801906838
 20
320.1915691874
 30
0.0
 10
229.9295160491
 20
319.8407681631
 30
0.0
 10
230.0628894587
 20
319.3822612635
 30
0.0
 10
230.1785322818
 20
318.8227864779
 30
0.0
 10
230.2638392775
 20
318.2575808924
 30
0.0
 10
230.3266777188
 20
317.6892952153
 30
0.0
 10
230.3863177766
 20
316.9286370108
 30
0.0
 10
230.4082764949
 20
316.3564168903
 30
0.0
 10
230.4149376705
 20
315.9747817479
 30
0.0
  0
SPLINE
  5
456
100
AcDbEntity
  8
10_ALL_FEATURES
100
AcDbSpline
 62
9
  6
CONTINUOUS
 70
0
 71
3
 72
15
 73
11
 74
0
 42
0.0000001
 43
0.0000001
 44
0.0000000001
 40
0.0
 40
0.0
 40
0.0
 40
0.0
 40
0.2502038465
 40
0.3752169769
 40
0.500173145
 40
0.6250830854
 40
0.7499660591
 40
0.8748575364
 40
0.937385368
 40
1.0
 40
1.0
 40
1.0
 40
1.0
 10
243.7713744049
 20
303.4147525344
 30
0.0
 10
244.1590868231
 20
303.4147543146
 30
0.0
 10
244.7406633968
 20
303.4032906961
 30
0.0
 10
245.5145282843
 20
303.3587464981
 30
0.0
 10
246.0932951066
 20
303.3078259985
 30
0.0
 10
246.6696698591
 20
303.2351469937
 30
0.0
 10
247.2413712469
 20
303.1330524447
 30
0.0
 10
247.7113113992
 20
303.0120646151
 30
0.0
 10
248.0734726536
 20
302.8739910685
 30
0.0
 10
248.2459004024
 20
302.7815902879
 30
0.0
 10
248.3239550109
 20
302.7239563425
 30
0.0
  0
SPLINE
  5
457
100
AcDbEntity
  8
10_ALL_FEATURES
100
AcDbSpline
 62
7
  6
CONTINUOUS
 70
0
 71
3
 72
9
 73
5
 74
0
 42
0.0000001
 43
0.0000001
 44
0.0000000001
 40
0.0
 40
0.0
 40
0.0
 40
0.0
 40
0.2386673142
 40
1.0
 40
1.0
 40
1.0
 40
1.0
 10
268.8519723449
 20
321.3355529856
 30
0.0
 10
268.8521775063
 20
321.3221793295
 30
0.0
 10
268.8545503365
 20
321.2661675266
 30
0.0
 10
268.8620146633
 20
321.2104607052
 30
0.0
 10
268.8694444917
 20
321.1684465132
 30
0.0
  0
SPLINE
  5
458
100
AcDbEntity
  8
10_ALL_FEATURES
100
AcDbSpline
 62
9
  6
CONTINUOUS
 70
0
 71
3
 72
18
 73
14
 74
0
 42
0.0000001
 43
0.0000001
 44
0.0000000001
 40
0.0
 40
0.0
 40
0.0
 40
0.0
 40
0.0051160256
 40
0.0196013595
 40
0.0434834249
 40
0.0765712667
 40
0.1185209502
 40
0.1689620098
 40
0.2932687082
 40
0.4447392164
 40
0.6174912657
 40
0.805071934
 40
1.0
 40
1.0
 40
1.0
 40
1.0
 10
142.6309787541
 20
307.3449425001
 30
0.0
 10
142.6309489832
 20
307.3432369244
 30
0.0
 10
142.6210846131
 20
307.3435915745
 30
0.0
 10
142.6098125307
 20
307.3410267531
 30
0.0
 10
142.5842295307
 20
307.3406640573
 30
0.0
 10
142.5520363133
 20
307.3393613091
 30
0.0
 10
142.5099096193
 20
307.3387125749
 30
0.0
 10
142.4377962641
 20
307.3378525249
 30
0.0
 10
142.3289387632
 20
307.3375845496
 30
0.0
 10
142.1794210801
 20
307.3380995804
 30
0.0
 10
142.0087645011
 20
307.3395289371
 30
0.0
 10
141.8236411148
 20
307.341798431
 30
0.0
 10
141.6961159951
 20
307.3438085286
 30
0.0
 10
141.6311310589
 20
307.3449425001
 30
0.0
  0
SPLINE
  5
459
100
AcDbEntity
  8
10_ALL_FEATURES
100
AcDbSpline
 62
7
  6
CONTINUOUS
 70
0
 71
3
 72
15
 73
11
 74
0
 42
0.0000001
 43
0.0000001
 44
0.0000000001
 40
0.0
 40
0.0
 40
0.0
 40
0.0
 40
0.1866715252
 40
0.2718956565
 40
0.3495772037
 40
0.4857844952
 40
0.6049761854
 40
0.7134553257
 40
0.814471721
 40
1.0
 40
1.0
 40
1.0
 40
1.0
 10
284.4764838843
 20
271.4147521258
 30
0.0
 10
284.629177086
 20
270.5607328671
 30
0.0
 10
284.990273669
 20
269.3288768958
 30
0.0
 10
285.7885179125
 20
267.9076863768
 30
0.0
 10
286.6411057918
 20
266.804227141
 30
0.0
 10
287.8209438955
 20
265.7768096266
 30
0.0
 10
289.3082874981
 20
264.9540506826
 30
0.0
 10
290.7488940023
 20
264.4311847802
 30
0.0
 10
292.5413657624
 20
264.0206923755
 30
0.0
 10
293.8776974123
 20
263.9147521258
 30
0.0
 10
294.7399463014
 20
263.9147521258
 30
0.0
  0
SPLINE
  5
45A
100
AcDbEntity
  8
10_ALL_FEATURES
100
AcDbSpline
 62
9
  6
CONTINUOUS
 70
0
 71
3
 72
15
 73
11
 74
0
 42
0.0000001
 43
0.0000001
 44
0.0000000001
 40
0.0
 40
0.0
 40
0.0
 40
0.0
 40
0.0626066504
 40
0.1251328927
 40
0.2500241005
 40
0.3749082332
 40
0.4998197093
 40
0.6247775785
 40
0.7497924758
 40
1.0
 40
1.0
 40
1.0
 40
1.0
 10
124.8726177217
 20
302.7239565435
 30
0.0
 10
124.950623965
 20
302.7816342032
 30
0.0
 10
125.1231082736
 20
302.8739226061
 30
0.0
 10
125.4851997522
 20
303.012088989
 30
0.0
 10
125.9551603457
 20
303.1330343723
 30
0.0
 10
126.5268534399
 20
303.2351476318
 30
0.0
 10
127.1032340413
 20
303.307821916
 30
0.0
 10
127.6820047128
 20
303.3587435212
 30
0.0
 10
128.4558763557
 20
303.4032891217
 30
0.0
 10
129.0374579768
 20
303.4147540368
 30
0.0
 10
129.4251738854
 20
303.4147524385
 30
0.0
  0
SPLINE
  5
45B
100
AcDbEntity
  8
10_ALL_FEATURES
100
AcDbSpline
 62
9
  6
CONTINUOUS
 70
0
 71
3
 72
15
 73
11
 74
0
 42
0.0000001
 43
0.0000001
 44
0.0000000001
 40
0.0
 40
0.0
 40
0.0
 40
0.0
 40
0.250315633
 40
0.3753535249
 40
0.5003127038
 40
0.6252036592
 40
0.7500470287
 40
0.8748817157
 40
0.9373882583
 40
1.0
 40
1.0
 40
1.0
 40
1.0
 10
142.7816130329
 20
315.9747759929
 30
0.0
 10
142.7882739719
 20
316.356411141
 30
0.0
 10
142.8102331259
 20
316.9286316295
 30
0.0
 10
142.8698730934
 20
317.6892902204
 30
0.0
 10
142.9327069791
 20
318.2575775217
 30
0.0
 10
143.0180220158
 20
318.8227812926
 30
0.0
 10
143.1336493042
 20
319.3822651158
 30
0.0
 10
143.2670496374
 20
319.8407554754
 30
0.0
 10
143.4163092746
 20
320.1916077734
 30
0.0
 10
143.5151337335
 20
320.3570646023
 30
0.0
 10
143.5761750661
 20
320.4304752472
 30
0.0
  0
SPLINE
  5
45C
100
AcDbEntity
  8
10_ALL_FEATURES
100
AcDbSpline
 62
9
  6
CONTINUOUS
 70
0
 71
3
 72
18
 73
14
 74
0
 42
0.0000001
 43
0.0000001
 44
0.0000000001
 40
0.0
 40
0.0
 40
0.0
 40
0.0
 40
0.1949726138
 40
0.3824914964
 40
0.5552661306
 40
0.7067276782
 40
0.8310361942
 40
0.8814793541
 40
0.9234368467
 40
0.956513806
 40
0.9804036992
 40
0.9948877257
 40
1.0
 40
1.0
 40
1.0
 40
1.0
 10
141.7817653629
 20
315.9747759925
 30
0.0
 10
141.8467651802
 20
315.973641762
 30
0.0
 10
141.9742846054
 20
315.9716313268
 30
0.0
 10
142.1594098682
 20
315.9693624803
 30
0.0
 10
142.330050464
 20
315.9679328705
 30
0.0
 10
142.4795733708
 20
315.9674184798
 30
0.0
 10
142.5884292288
 20
315.9676855374
 30
0.0
 10
142.660546537
 20
315.9685465385
 30
0.0
 10
142.7026728947
 20
315.9691946101
 30
0.0
 10
142.7348680167
 20
315.9704978145
 30
0.0
 10
142.7604494123
 20
315.9708603402
 30
0.0
 10
142.771723463
 20
315.9734211846
 30
0.0
 10
142.7815833089
 20
315.9730716666
 30
0.0
 10
142.781613058
 20
315.9747759925
 30
0.0
  0
SPLINE
  5
45D
100
AcDbEntity
  8
10_ALL_FEATURES
100
AcDbSpline
 62
9
  6
CONTINUOUS
 70
0
 71
3
 72
9
 73
5
 74
0
 42
0.0000001
 43
0.0000001
 44
0.0000000001
 40
0.0
 40
0.0
 40
0.0
 40
0.0
 40
0.2457160492
 40
1.0
 40
1.0
 40
1.0
 40
1.0
 10
248.3239845433
 20
302.7237714188
 30
0.0
 10
247.7140729522
 20
302.720216963
 30
0.0
 10
245.231891467
 20
302.7059155247
 30
0.0
 10
242.7497173187
 20
302.6903641058
 30
0.0
 10
240.8774552104
 20
302.6783390823
 30
0.0
  0
SPLINE
  5
45E
100
AcDbEntity
  8
10_ALL_FEATURES
100
AcDbSpline
 62
7
  6
CONTINUOUS
 70
0
 71
3
 72
10
 73
6
 74
0
 42
0.0000001
 43
0.0000001
 44
0.0000000001
 40
0.0
 40
0.0
 40
0.0
 40
0.0
 40
0.2134491105
 40
0.4515420545
 40
1.0
 40
1.0
 40
1.0
 40
1.0
 10
88.7712101938
 20
313.2455713243
 30
0.0
 10
89.4152479912
 20
313.0384350777
 30
0.0
 10
90.7874949895
 20
312.6305394723
 30
0.0
 10
93.854498223
 20
311.8295487803
 30
0.0
 10
96.2923242444
 20
311.3019900538
 30
0.0
 10
97.9974394091
 20
310.9637467221
 30
0.0
  0
SPLINE
  5
45F
100
AcDbEntity
  8
10_ALL_FEATURES
100
AcDbSpline
 62
7
  6
CONTINUOUS
 70
0
 71
3
 72
13
 73
9
 74
0
 42
0.0000001
 43
0.0000001
 44
0.0000000001
 40
0.0
 40
0.0
 40
0.0
 40
0.0
 40
0.2748668553
 40
0.5397330545
 40
0.6665382969
 40
0.7877120868
 40
0.9005683712
 40
1.0
 40
1.0
 40
1.0
 40
1.0
 10
284.4253406278
 20
313.2455713243
 30
0.0
 10
284.5615030938
 20
312.9767032055
 30
0.0
 10
284.8156766705
 20
312.4419655713
 30
0.0
 10
285.0932540468
 20
311.7653184424
 30
0.0
 10
285.2782581751
 20
311.2341967481
 30
0.0
 10
285.3914972466
 20
310.8548289584
 30
0.0
 10
285.473855594
 20
310.4985474064
 30
0.0
 10
285.504646927
 20
310.266629989
 30
0.0
 10
285.5065330995
 20
310.157623461
 30
0.0
  0
SPLINE
  5
460
100
AcDbEntity
  8
10_ALL_FEATURES
100
AcDbSpline
 62
7
  6
CONTINUOUS
 70
0
 71
3
 72
9
 73
5
 74
0
 42
0.0000001
 43
0.0000001
 44
0.0000000001
 40
0.0
 40
0.0
 40
0.0
 40
0.0
 40
0.5489540169
 40
1.0
 40
1.0
 40
1.0
 40
1.0
 10
268.5308602152
 20
323.9806940984
 30
0.0
 10
270.0798342406
 20
324.2340423933
 30
0.0
 10
272.8947765629
 20
324.7380889597
 30
0.0
 10
275.6855790103
 20
325.3687140809
 30
0.0
 10
276.9314167663
 20
325.7018915491
 30
0.0
  0
SPLINE
  5
461
100
AcDbEntity
  8
10_ALL_FEATURES
100
AcDbSpline
 62
7
  6
CONTINUOUS
 70
0
 71
3
 72
12
 73
8
 74
0
 42
0.0000001
 43
0.0000001
 44
0.0000000001
 40
0.0
 40
0.0
 40
0.0
 40
0.0
 40
0.281626708
 40
0.5499578032
 40
0.7962573896
 40
0.9056851527
 40
1.0
 40
1.0
 40
1.0
 40
1.0
 10
280.6823297136
 20
319.8772174764
 30
0.0
 10
280.8127324616
 20
319.6519670544
 30
0.0
 10
281.0560379895
 20
319.2053026541
 30
0.0
 10
281.3688665298
 20
318.5389586806
 30
0.0
 10
281.5745869383
 20
317.998567918
 30
0.0
 10
281.6802138326
 20
317.5961425233
 30
0.0
 10
281.7077453333
 20
317.4086412614
 30
0.0
 10
281.7092695036
 20
317.3214905683
 30
0.0
  0
SPLINE
  5
462
100
AcDbEntity
  8
10_ALL_FEATURES
100
AcDbSpline
 62
7
  6
CONTINUOUS
 70
0
 71
3
 72
12
 73
8
 74
0
 42
0.0000001
 43
0.0000001
 44
0.0000000001
 40
0.0
 40
0.0
 40
0.0
 40
0.0
 40
0.2881301493
 40
0.5595585823
 40
0.803974964
 40
0.9101492344
 40
1.0
 40
1.0
 40
1.0
 40
1.0
 10
276.9314167663
 20
325.7018915491
 30
0.0
 10
277.0592519949
 20
325.5056837382
 30
0.0
 10
277.2972781723
 20
325.1177189394
 30
0.0
 10
277.6027187293
 20
324.539817073
 30
0.0
 10
277.8021306078
 20
324.0735221929
 30
0.0
 10
277.90249395
 20
323.729727726
 30
0.0
 10
277.9279010122
 20
323.5711732153
 30
0.0
 10
277.9291811067
 20
323.498158147
 30
0.0
  0
SPLINE
  5
463
100
AcDbEntity
  8
10_ALL_FEATURES
100
AcDbSpline
 62
7
  6
CONTINUOUS
 70
0
 71
3
 72
11
 73
7
 74
0
 42
0.0000001
 43
0.0000001
 44
0.0000000001
 40
0.0
 40
0.0
 40
0.0
 40
0.0
 40
0.2938017376
 40
0.5576445056
 40
0.7872611209
 40
1.0
 40
1.0
 40
1.0
 40
1.0
 10
275.064567765
 20
310.6746113453
 30
0.0
 10
275.0651556014
 20
310.7080515019
 30
0.0
 10
275.0693107156
 20
310.7716304082
 30
0.0
 10
275.0893282118
 20
310.8593621025
 30
0.0
 10
275.1283818429
 20
310.9321770039
 30
0.0
 10
275.175356859
 20
310.9590345364
 30
0.0
 10
275.1991114124
 20
310.9637467221
 30
0.0
  0
SPLINE
  5
464
100
AcDbEntity
  8
10_ALL_FEATURES
100
AcDbSpline
 62
7
  6
CONTINUOUS
 70
0
 71
3
 72
13
 73
9
 74
0
 42
0.0000001
 43
0.0000001
 44
0.0000000001
 40
0.0
 40
0.0
 40
0.0
 40
0.0
 40
0.0994320771
 40
0.2122881532
 40
0.333462057
 40
0.460267332
 40
0.7251336582
 40
1.0
 40
1.0
 40
1.0
 40
1.0
 10
87.6900181779
 20
310.1576239413
 30
0.0
 10
87.6919055579
 20
310.2666309234
 30
0.0
 10
87.722694753
 20
310.4985486299
 30
0.0
 10
87.8050538135
 20
310.854830558
 30
0.0
 10
87.9182929281
 20
311.2341981312
 30
0.0
 10
88.1032972581
 20
311.7653200083
 30
0.0
 10
88.3808746852
 20
312.4419665609
 30
0.0
 10
88.6350480029
 20
312.9767037488
 30
0.0
 10
88.7712101938
 20
313.2455713243
 30
0.0
  0
SPLINE
  5
465
100
AcDbEntity
  8
10_ALL_FEATURES
100
AcDbSpline
 62
7
  6
CONTINUOUS
 70
0
 71
3
 72
12
 73
8
 74
0
 42
0.0000001
 43
0.0000001
 44
0.0000000001
 40
0.0
 40
0.0
 40
0.0
 40
0.0
 40
0.094314788
 40
0.2037431027
 40
0.4500430181
 40
0.7183740111
 40
1.0
 40
1.0
 40
1.0
 40
1.0
 10
91.4872813728
 20
317.3214906254
 30
0.0
 10
91.4888051564
 20
317.4086412688
 30
0.0
 10
91.5163370877
 20
317.5961429978
 30
0.0
 10
91.6219641674
 20
317.9985690607
 30
0.0
 10
91.8276851164
 20
318.5389604173
 30
0.0
 10
92.1405134548
 20
319.2053039478
 30
0.0
 10
92.3838186953
 20
319.6519676337
 30
0.0
 10
92.5142211079
 20
319.8772174764
 30
0.0
  0
SPLINE
  5
466
100
AcDbEntity
  8
10_ALL_FEATURES
100
AcDbSpline
 62
7
  6
CONTINUOUS
 70
0
 71
3
 72
9
 73
5
 74
0
 42
0.0000001
 43
0.0000001
 44
0.0000000001
 40
0.0
 40
0.0
 40
0.0
 40
0.0
 40
0.4510459831
 40
1.0
 40
1.0
 40
1.0
 40
1.0
 10
96.2651340553
 20
325.7018915491
 30
0.0
 10
97.5109718113
 20
325.3687140809
 30
0.0
 10
100.3017742587
 20
324.7380889597
 30
0.0
 10
103.116716581
 20
324.2340423933
 30
0.0
 10
104.6656906063
 20
323.9806940984
 30
0.0
  0
SPLINE
  5
467
100
AcDbEntity
  8
10_ALL_FEATURES
100
AcDbSpline
 62
7
  6
CONTINUOUS
 70
0
 71
3
 72
8
 73
4
 74
0
 42
0.0000001
 43
0.0000001
 44
0.0000000001
 40
0.0
 40
0.0
 40
0.0
 40
0.0
 40
1.0
 40
1.0
 40
1.0
 40
1.0
 10
284.3884140095
 20
309.5066802621
 30
0.0
 10
284.4008826808
 20
310.7529756944
 30
0.0
 10
284.4131976667
 20
311.999272676
 30
0.0
 10
284.4253406278
 20
313.2455713243
 30
0.0
  0
LINE
  5
468
100
AcDbEntity
  8
10_ALL_FEATURES
100
AcDbLine
 62
7
  6
CONTINUOUS
 10
280.6521728563
 20
316.7785296795
 11
280.6823297136
 21
319.8772174764
  0
SPLINE
  5
469
100
AcDbEntity
  8
10_ALL_FEATURES
100
AcDbSpline
 62
7
  6
CONTINUOUS
 70
0
 71
3
 72
12
 73
8
 74
0
 42
0.0000001
 43
0.0000001
 44
0.0000000001
 40
0.0
 40
0.0
 40
0.0
 40
0.0
 40
0.0898507458
 40
0.1960249874
 40
0.4404413513
 40
0.7118698192
 40
1.0
 40
1.0
 40
1.0
 40
1.0
 10
95.2673697285
 20
323.4981581605
 30
0.0
 10
95.2686498121
 20
323.5711732124
 30
0.0
 10
95.2940568846
 20
323.729727682
 30
0.0
 10
95.3944201844
 20
324.0735220989
 30
0.0
 10
95.5938320343
 20
324.5398169801
 30
0.0
 10
95.8992726151
 20
325.1177188728
 30
0.0
 10
96.1372988136
 20
325.5056837182
 30
0.0
 10
96.2651340553
 20
325.7018915491
 30
0.0
  0
LINE
  5
46A
100
AcDbEntity
  8
10_ALL_FEATURES
100
AcDbLine
 62
7
  6
CONTINUOUS
 10
276.9055755448
 20
323.023899705
 11
276.9314167663
 21
325.7018915491
  0
SPLINE
  5
46B
100
AcDbEntity
  8
10_ALL_FEATURES
100
AcDbSpline
 62
7
  6
CONTINUOUS
 70
0
 71
3
 72
11
 73
7
 74
0
 42
0.0000001
 43
0.0000001
 44
0.0000000001
 40
0.0
 40
0.0
 40
0.0
 40
0.0
 40
0.2127392081
 40
0.442356072
 40
0.7061981098
 40
1.0
 40
1.0
 40
1.0
 40
1.0
 10
97.9974394091
 20
310.9637467221
 30
0.0
 10
98.0211939992
 20
310.9590345292
 30
0.0
 10
98.0681690922
 20
310.9321769581
 30
0.0
 10
98.1072225907
 20
310.8593619993
 30
0.0
 10
98.1272401208
 20
310.7716303673
 30
0.0
 10
98.1313952187
 20
310.7080515203
 30
0.0
 10
98.1319830583
 20
310.6746113466
 30
0.0
  0
SPLINE
  5
46C
100
AcDbEntity
  8
10_ALL_FEATURES
100
AcDbSpline
 62
7
  6
CONTINUOUS
 70
0
 71
3
 72
11
 73
7
 74
0
 42
0.0000001
 43
0.0000001
 44
0.0000000001
 40
0.0
 40
0.0
 40
0.0
 40
0.0
 40
0.2234153786
 40
0.4515285488
 40
0.7097011627
 40
1.0
 40
1.0
 40
1.0
 40
1.0
 10
101.3249187189
 20
317.9154828869
 30
0.0
 10
101.346485309
 20
317.9116432825
 30
0.0
 10
101.3890912254
 20
317.8917763984
 30
0.0
 10
101.428690216
 20
317.8318306701
 30
0.0
 10
101.4485715172
 20
317.7577050077
 30
0.0
 10
101.4526462641
 20
317.7038446877
 30
0.0
 10
101.4531404954
 20
317.6753853889
 30
0.0
  0
SPLINE
  5
46D
100
AcDbEntity
  8
10_ALL_FEATURES
100
AcDbSpline
 62
7
  6
CONTINUOUS
 70
0
 71
3
 72
11
 73
7
 74
0
 42
0.0000001
 43
0.0000001
 44
0.0000000001
 40
0.0
 40
0.0
 40
0.0
 40
0.0
 40
0.2338371853
 40
0.4619445922
 40
0.7146331099
 40
1.0
 40
1.0
 40
1.0
 40
1.0
 10
104.6656906063
 20
323.9806940984
 30
0.0
 10
104.6859482883
 20
323.9773807767
 30
0.0
 10
104.7255816206
 20
323.9616612759
 30
0.0
 10
104.7655855007
 20
323.9105711231
 30
0.0
 10
104.7857166522
 20
323.8455351143
 30
0.0
 10
104.7897290581
 20
323.7982220993
 30
0.0
 10
104.790163695
 20
323.7731755995
 30
0.0
  0
SPLINE
  5
46E
100
AcDbEntity
  8
10_ALL_FEATURES
100
AcDbSpline
 62
7
  6
CONTINUOUS
 70
0
 71
3
 72
15
 73
11
 74
0
 42
0.0000001
 43
0.0000001
 44
0.0000000001
 40
0.0
 40
0.0
 40
0.0
 40
0.0
 40
0.185527592
 40
0.2865431241
 40
0.3950213146
 40
0.5142133048
 40
0.65042298
 40
0.7281048477
 40
0.813327903
 40
1.0
 40
1.0
 40
1.0
 40
1.0
 10
78.4566045202
 20
263.9147521258
 30
0.0
 10
79.3188501945
 20
263.9147521258
 30
0.0
 10
80.6551824733
 20
264.0206558506
 30
0.0
 10
82.4476222399
 20
264.4312245726
 30
0.0
 10
83.8882490191
 20
264.9540106064
 30
0.0
 10
85.375586033
 20
265.7768064509
 30
0.0
 10
86.5554411194
 20
266.8042209618
 30
0.0
 10
87.4080344155
 20
267.9076867357
 30
0.0
 10
88.2062783399
 20
269.3288760342
 30
0.0
 10
88.5673732718
 20
270.5607302727
 30
0.0
 10
88.7200669373
 20
271.4147521258
 30
0.0
  0
SPLINE
  5
46F
100
AcDbEntity
  8
10_ALL_FEATURES
100
AcDbSpline
 62
7
  6
CONTINUOUS
 70
0
 71
3
 72
10
 73
6
 74
0
 42
0.0000001
 43
0.0000001
 44
0.0000000001
 40
0.0
 40
0.0
 40
0.0
 40
0.0
 40
0.5487747291
 40
0.786800047
 40
1.0
 40
1.0
 40
1.0
 40
1.0
 10
271.8716321027
 20
317.9154828869
 30
0.0
 10
273.4978576402
 20
318.2050076889
 30
0.0
 10
275.823577291
 20
318.6572200456
 30
0.0
 10
278.7538588797
 20
319.3465508461
 30
0.0
 10
280.0660420538
 20
319.6983265328
 30
0.0
 10
280.6823297136
 20
319.8772174764
 30
0.0
  0
SPLINE
  5
470
100
AcDbEntity
  8
10_ALL_FEATURES
100
AcDbSpline
 62
7
  6
CONTINUOUS
 70
0
 71
3
 72
11
 73
7
 74
0
 42
0.0000001
 43
0.0000001
 44
0.0000000001
 40
0.0
 40
0.0
 40
0.0
 40
0.0
 40
0.2103462939
 40
0.4369658223
 40
0.696794963
 40
1.0
 40
1.0
 40
1.0
 40
1.0
 10
298.7319236817
 20
258.9147521258
 30
0.0
 10
298.7857949038
 20
258.9147521258
 30
0.0
 10
298.8985738145
 20
258.9349541127
 30
0.0
 10
299.0561806561
 20
259.0240564409
 30
0.0
 10
299.2015973474
 20
259.1669820739
 30
0.0
 10
299.2837049831
 20
259.28641017
 30
0.0
 10
299.3234188832
 20
259.3531394614
 30
0.0
  0
SPLINE
  5
471
100
AcDbEntity
  8
10_ALL_FEATURES
100
AcDbSpline
 62
7
  6
CONTINUOUS
 70
0
 71
3
 72
10
 73
6
 74
0
 42
0.0000001
 43
0.0000001
 44
0.0000000001
 40
0.0
 40
0.0
 40
0.0
 40
0.0
 40
0.5484579455
 40
0.7865508895
 40
1.0
 40
1.0
 40
1.0
 40
1.0
 10
275.1991114124
 20
310.9637467221
 30
0.0
 10
276.9042265772
 20
311.3019900538
 30
0.0
 10
279.3420525986
 20
311.8295487803
 30
0.0
 10
282.4090558321
 20
312.6305394723
 30
0.0
 10
283.7813028304
 20
313.0384350777
 30
0.0
 10
284.4253406278
 20
313.2455713243
 30
0.0
  0
SPLINE
  5
472
100
AcDbEntity
  8
10_ALL_FEATURES
100
AcDbSpline
 62
7
  6
CONTINUOUS
 70
0
 71
3
 72
11
 73
7
 74
0
 42
0.0000001
 43
0.0000001
 44
0.0000000001
 40
0.0
 40
0.0
 40
0.0
 40
0.0
 40
0.2902988279
 40
0.5484714282
 40
0.7765846017
 40
1.0
 40
1.0
 40
1.0
 40
1.0
 10
271.7434103259
 20
317.6753853891
 30
0.0
 10
271.7439045572
 20
317.7038446869
 30
0.0
 10
271.7479793047
 20
317.7577050044
 30
0.0
 10
271.7678606036
 20
317.8318306652
 30
0.0
 10
271.8074595931
 20
317.8917763945
 30
0.0
 10
271.8500655107
 20
317.9116432822
 30
0.0
 10
271.8716321027
 20
317.9154828869
 30
0.0
  0
SPLINE
  5
473
100
AcDbEntity
  8
10_ALL_FEATURES
100
AcDbSpline
 62
7
  6
CONTINUOUS
 70
0
 71
3
 72
11
 73
7
 74
0
 42
0.0000001
 43
0.0000001
 44
0.0000000001
 40
0.0
 40
0.0
 40
0.0
 40
0.0
 40
0.303202889
 40
0.5630314273
 40
0.7896518612
 40
1.0
 40
1.0
 40
1.0
 40
1.0
 10
73.8731306207
 20
259.3531121491
 30
0.0
 10
73.9128437624
 20
259.2863868307
 30
0.0
 10
73.9949497442
 20
259.1669658154
 30
0.0
 10
74.1403625946
 20
259.0240491561
 30
0.0
 10
74.2979645689
 20
258.9349527026
 30
0.0
 10
74.4107394287
 20
258.9147521257
 30
0.0
 10
74.4646088673
 20
258.9147521255
 30
0.0
  0
SPLINE
  5
474
100
AcDbEntity
  8
10_ALL_FEATURES
100
AcDbSpline
 62
7
  6
CONTINUOUS
 70
0
 71
3
 72
8
 73
4
 74
0
 42
0.0000001
 43
0.0000001
 44
0.0000000001
 40
0.0
 40
0.0
 40
0.0
 40
0.0
 40
1.0
 40
1.0
 40
1.0
 40
1.0
 10
88.7712101938
 20
313.2455713243
 30
0.0
 10
88.7833531548
 20
311.9992726765
 30
0.0
 10
88.7956681408
 20
310.7529756954
 30
0.0
 10
88.8081368121
 20
309.5066802636
 30
0.0
  0
LINE
  5
475
100
AcDbEntity
  8
10_ALL_FEATURES
100
AcDbLine
 62
7
  6
CONTINUOUS
 10
92.5142211079
 20
319.8772174764
 11
92.5443779653
 21
316.77852968
  0
SPLINE
  5
476
100
AcDbEntity
  8
10_ALL_FEATURES
100
AcDbSpline
 62
9
  6
CONTINUOUS
 70
0
 71
3
 72
10
 73
6
 74
0
 42
0.0000001
 43
0.0000001
 44
0.0000000001
 40
0.0
 40
0.0
 40
0.0
 40
0.0
 40
0.4999930894
 40
0.7501066264
 40
1.0
 40
1.0
 40
1.0
 40
1.0
 10
129.4251738854
 20
304.3972997194
 30
0.0
 10
128.7198430949
 20
304.3973104633
 30
0.0
 10
127.6574959988
 20
304.3324026626
 30
0.0
 10
126.2746086969
 20
304.0462369785
 30
0.0
 10
125.6053365179
 20
303.806047236
 30
0.0
 10
125.2916476974
 20
303.6452070322
 30
0.0
  0
LINE
  5
477
100
AcDbEntity
  8
10_ALL_FEATURES
100
AcDbLine
 62
7
  6
CONTINUOUS
 10
96.2651340553
 20
325.7018915491
 11
96.2909752768
 21
323.0238997052
  0
SPLINE
  5
478
100
AcDbEntity
  8
10_ALL_FEATURES
100
AcDbSpline
 62
7
  6
CONTINUOUS
 70
0
 71
3
 72
15
 73
11
 74
0
 42
0.0000001
 43
0.0000001
 44
0.0000000001
 40
0.0
 40
0.0
 40
0.0
 40
0.0
 40
0.25
 40
0.375
 40
0.5
 40
0.625
 40
0.75
 40
0.875
 40
0.9375
 40
1.0
 40
1.0
 40
1.0
 40
1.0
 10
505.9151580555
 20
263.9147521258
 30
0.0
 10
507.7901580555
 20
263.9147521258
 30
0.0
 10
510.4730073961
 20
264.0444027852
 30
0.0
 10
513.6935498836
 20
264.5738602976
 30
0.0
 10
515.8934550209
 20
265.1864551604
 30
0.0
 10
517.8285677808
 20
266.0638424005
 30
0.0
 10
519.4260574569
 20
267.2788527243
 30
0.0
 10
520.3841501762
 20
268.664510005
 30
0.0
 10
520.8281469538
 20
270.0955132275
 30
0.0
 10
520.9151580555
 20
270.9460021258
 30
0.0
 10
520.9151580555
 20
271.4147521258
 30
0.0
  0
SPLINE
  5
479
100
AcDbEntity
  8
10_ALL_FEATURES
100
AcDbSpline
 62
7
  6
CONTINUOUS
 70
0
 71
3
 72
8
 73
4
 74
0
 42
0.0000001
 43
0.0000001
 44
0.0000000001
 40
0.0
 40
0.0
 40
0.0
 40
0.0
 40
1.0
 40
1.0
 40
1.0
 40
1.0
 10
510.2317195695
 20
321.1684465132
 30
0.0
 10
510.180623358
 20
321.2270264794
 30
0.0
 10
510.1265296749
 20
321.2832084417
 30
0.0
 10
510.0690624322
 20
321.3355529856
 30
0.0
  0
SPLINE
  5
47A
100
AcDbEntity
  8
10_ALL_FEATURES
100
AcDbSpline
 62
7
  6
CONTINUOUS
 70
0
 71
3
 72
11
 73
7
 74
0
 42
0.0000001
 43
0.0000001
 44
0.0000000001
 40
0.0
 40
0.0
 40
0.0
 40
0.0
 40
0.1052799617
 40
0.3304724262
 40
0.6420398628
 40
1.0
 40
1.0
 40
1.0
 40
1.0
 10
424.2081205862
 20
368.2069040617
 30
0.0
 10
424.2079766141
 20
368.2031056582
 30
0.0
 10
424.1953328311
 20
368.195848649
 30
0.0
 10
424.1771059652
 20
368.1849815118
 30
0.0
 10
424.1465152168
 20
368.1719007856
 30
0.0
 10
424.1242130004
 20
368.1632526157
 30
0.0
 10
424.1120448227
 20
368.1588972807
 30
0.0
  0
SPLINE
  5
47B
100
AcDbEntity
  8
10_ALL_FEATURES
100
AcDbSpline
 62
7
  6
CONTINUOUS
 70
0
 71
3
 72
13
 73
9
 74
0
 42
0.0000001
 43
0.0000001
 44
0.0000000001
 40
0.0
 40
0.0
 40
0.0
 40
0.0
 40
0.0366527253
 40
0.1117449225
 40
0.2203560382
 40
0.3548165963
 40
0.6706101399
 40
1.0
 40
1.0
 40
1.0
 40
1.0
 10
417.7068101339
 20
366.0445888427
 30
0.0
 10
417.7067706271
 20
366.0427157999
 30
0.0
 10
417.7016278526
 20
366.0384895737
 30
0.0
 10
417.693054664
 20
366.0322833301
 30
0.0
 10
417.6786071626
 20
366.0240947668
 30
0.0
 10
417.6533825224
 20
366.0110270331
 30
0.0
 10
417.6170050199
 20
365.9944672805
 30
0.0
 10
417.5864353268
 20
365.9821330776
 30
0.0
 10
417.5706441927
 20
365.9762932857
 30
0.0
  0
SPLINE
  5
47C
100
AcDbEntity
  8
10_ALL_FEATURES
100
AcDbSpline
 62
7
  6
CONTINUOUS
 70
0
 71
3
 72
13
 73
9
 74
0
 42
0.0000001
 43
0.0000001
 44
0.0000000001
 40
0.0
 40
0.0
 40
0.0
 40
0.0
 40
0.03545986
 40
0.1113950355
 40
0.2213539589
 40
0.3567633158
 40
0.6722445759
 40
1.0
 40
1.0
 40
1.0
 40
1.0
 10
411.7476981067
 20
363.6421210187
 30
0.0
 10
411.7476696683
 20
363.6402744395
 30
0.0
 10
411.742190822
 20
363.6361713696
 30
0.0
 10
411.7337020566
 20
363.6295843897
 30
0.0
 10
411.7190032654
 20
363.620783642
 30
0.0
 10
411.6937709119
 20
363.6064401152
 30
0.0
 10
411.6575546332
 20
363.5879110017
 30
0.0
 10
411.6272406905
 20
363.5737045631
 30
0.0
 10
411.6116141769
 20
363.5668346767
 30
0.0
  0
SPLINE
  5
47D
100
AcDbEntity
  8
10_ALL_FEATURES
100
AcDbSpline
 62
7
  6
CONTINUOUS
 70
0
 71
3
 72
13
 73
9
 74
0
 42
0.0000001
 43
0.0000001
 44
0.0000000001
 40
0.0
 40
0.0
 40
0.0
 40
0.0
 40
0.0344667297
 40
0.1114401092
 40
0.2228486603
 40
0.3592019827
 40
0.6741387287
 40
1.0
 40
1.0
 40
1.0
 40
1.0
 10
406.0969207991
 20
360.9668740904
 30
0.0
 10
406.0968847975
 20
360.9650404661
 30
0.0
 10
406.0910606092
 20
360.9610509208
 30
0.0
 10
406.0826215502
 20
360.9539959702
 30
0.0
 10
406.0676413718
 20
360.9445311206
 30
0.0
 10
406.0423830508
 20
360.9288405039
 30
0.0
 10
406.0063330669
 20
360.9083095033
 30
0.0
 10
405.9762978344
 20
360.8922325255
 30
0.0
 10
405.9608558378
 20
360.8843465011
 30
0.0
  0
SPLINE
  5
47E
100
AcDbEntity
  8
10_ALL_FEATURES
100
AcDbSpline
 62
7
  6
CONTINUOUS
 70
0
 71
3
 72
15
 73
11
 74
0
 42
0.0000001
 43
0.0000001
 44
0.0000000001
 40
0.0
 40
0.0
 40
0.0
 40
0.0
 40
0.1679889865
 40
0.327382352
 40
0.4745592687
 40
0.6068311671
 40
0.7229830185
 40
0.8240112622
 40
0.9139589674
 40
1.0
 40
1.0
 40
1.0
 40
1.0
 10
372.2884449053
 20
265.7421440091
 30
0.0
 10
372.2884449053
 20
265.2810877312
 30
0.0
 10
372.3225702317
 20
264.3820879602
 30
0.0
 10
372.4813169764
 20
263.0876342499
 30
0.0
 10
372.7453493949
 20
261.9100563244
 30
0.0
 10
373.1124138985
 20
260.8844917294
 30
0.0
 10
373.579612194
 20
260.0405920801
 30
0.0
 10
374.1456675595
 20
259.4033550112
 30
0.0
 10
374.8078330329
 20
259.002014962
 30
0.0
 10
375.2958688873
 20
258.9147521258
 30
0.0
 10
375.5320138814
 20
258.9147521258
 30
0.0
  0
SPLINE
  5
47F
100
AcDbEntity
  8
10_ALL_FEATURES
100
AcDbSpline
 62
7
  6
CONTINUOUS
 70
0
 71
3
 72
14
 73
10
 74
0
 42
0.0000001
 43
0.0000001
 44
0.0000000001
 40
0.0
 40
0.0
 40
0.0
 40
0.0
 40
0.1121969695
 40
0.2173094408
 40
0.4455375288
 40
0.5749642086
 40
0.7142140021
 40
0.8595055302
 40
1.0
 40
1.0
 40
1.0
 40
1.0
 10
372.2884437322
 20
303.8637241057
 30
0.0
 10
372.2884442111
 20
303.809583087
 30
0.0
 10
372.2981933218
 20
303.7048936143
 30
0.0
 10
372.3251117515
 20
303.4917250774
 30
0.0
 10
372.3400995146
 20
303.2684275589
 30
0.0
 10
372.3354507229
 20
303.0285903041
 30
0.0
 10
372.3219976473
 20
302.8291954715
 30
0.0
 10
372.3025405064
 20
302.6251504884
 30
0.0
 10
372.2884451047
 20
302.4876269211
 30
0.0
 10
372.2884451047
 20
302.4198308502
 30
0.0
  0
SPLINE
  5
480
100
AcDbEntity
  8
10_ALL_FEATURES
100
AcDbSpline
 62
7
  6
CONTINUOUS
 70
0
 71
3
 72
9
 73
5
 74
0
 42
0.0000001
 43
0.0000001
 44
0.0000000001
 40
0.0
 40
0.0
 40
0.0
 40
0.0
 40
0.276692991
 40
1.0
 40
1.0
 40
1.0
 40
1.0
 10
420.2249506774
 20
345.6280636468
 30
0.0
 10
418.2175463917
 20
345.4718821888
 30
0.0
 10
410.9626685317
 20
344.9060116988
 30
0.0
 10
403.7081950527
 20
344.3349582051
 30
0.0
 10
398.461207789
 20
343.9190889667
 30
0.0
  0
SPLINE
  5
481
100
AcDbEntity
  8
10_ALL_FEATURES
100
AcDbSpline
 62
7
  6
CONTINUOUS
 70
0
 71
3
 72
9
 73
5
 74
0
 42
0.0000001
 43
0.0000001
 44
0.0000000001
 40
0.0
 40
0.0
 40
0.0
 40
0.0
 40
0.2769186274
 40
1.0
 40
1.0
 40
1.0
 40
1.0
 10
417.9566366573
 20
340.9858438903
 30
0.0
 10
415.7977625329
 20
340.8092333731
 30
0.0
 10
408.0018582093
 20
340.1695659536
 30
0.0
 10
400.2065261373
 20
339.5229262811
 30
0.0
 10
394.5701874327
 20
339.0515298484
 30
0.0
  0
SPLINE
  5
482
100
AcDbEntity
  8
10_ALL_FEATURES
100
AcDbSpline
 62
7
  6
CONTINUOUS
 70
0
 71
3
 72
9
 73
5
 74
0
 42
0.0000001
 43
0.0000001
 44
0.0000000001
 40
0.0
 40
0.0
 40
0.0
 40
0.0
 40
0.2306117397
 40
1.0
 40
1.0
 40
1.0
 40
1.0
 10
425.4330423162
 20
351.5252333085
 30
0.0
 10
425.4329211103
 20
351.5226381554
 30
0.0
 10
425.431337376
 20
351.511426582
 30
0.0
 10
425.4259327817
 20
351.5010416525
 30
0.0
 10
425.4208767616
 20
351.4940014508
 30
0.0
  0
SPLINE
  5
483
100
AcDbEntity
  8
10_ALL_FEATURES
100
AcDbSpline
 62
7
  6
CONTINUOUS
 70
0
 71
3
 72
9
 73
5
 74
0
 42
0.0000001
 43
0.0000001
 44
0.0000000001
 40
0.0
 40
0.0
 40
0.0
 40
0.0
 40
0.2303439217
 40
1.0
 40
1.0
 40
1.0
 40
1.0
 10
425.4208767616
 20
351.4940014508
 30
0.0
 10
425.4191940113
 20
351.491658323
 30
0.0
 10
425.4113887646
 20
351.4818459292
 30
0.0
 10
425.4018278368
 20
351.4735064181
 30
0.0
 10
425.3939920798
 20
351.4678929651
 30
0.0
  0
SPLINE
  5
484
100
AcDbEntity
  8
10_ALL_FEATURES
100
AcDbSpline
 62
7
  6
CONTINUOUS
 70
0
 71
3
 72
8
 73
4
 74
0
 42
0.0000001
 43
0.0000001
 44
0.0000000001
 40
0.0
 40
0.0
 40
0.0
 40
0.0
 40
1.0
 40
1.0
 40
1.0
 40
1.0
 10
425.3939920798
 20
351.4678929651
 30
0.0
 10
425.3829884835
 20
351.4600101058
 30
0.0
 10
425.3708643883
 20
351.4535538054
 30
0.0
 10
425.3582871429
 20
351.4485506562
 30
0.0
  0
SPLINE
  5
485
100
AcDbEntity
  8
10_ALL_FEATURES
100
AcDbSpline
 62
7
  6
CONTINUOUS
 70
0
 71
3
 72
9
 73
5
 74
0
 42
0.0000001
 43
0.0000001
 44
0.0000000001
 40
0.0
 40
0.0
 40
0.0
 40
0.0
 40
0.2118769712
 40
1.0
 40
1.0
 40
1.0
 40
1.0
 10
423.2160324795
 20
347.6629826733
 30
0.0
 10
423.2157406414
 20
347.6566707124
 30
0.0
 10
423.2089565281
 20
347.6271948386
 30
0.0
 10
423.1890779746
 20
347.6026617987
 30
0.0
 10
423.1719629232
 20
347.5865526672
 30
0.0
  0
SPLINE
  5
486
100
AcDbEntity
  8
10_ALL_FEATURES
100
AcDbSpline
 62
7
  6
CONTINUOUS
 70
0
 71
3
 72
9
 73
5
 74
0
 42
0.0000001
 43
0.0000001
 44
0.0000000001
 40
0.0
 40
0.0
 40
0.0
 40
0.0
 40
0.2764285446
 40
1.0
 40
1.0
 40
1.0
 40
1.0
 10
422.4938917476
 20
349.7916358483
 30
0.0
 10
420.6385665333
 20
349.6533438125
 30
0.0
 10
413.9268743316
 20
349.1519996965
 30
0.0
 10
407.2154730615
 20
348.6467617861
 30
0.0
 10
402.3594546984
 20
348.2790771943
 30
0.0
  0
SPLINE
  5
487
100
AcDbEntity
  8
10_ALL_FEATURES
100
AcDbSpline
 62
7
  6
CONTINUOUS
 70
0
 71
3
 72
9
 73
5
 74
0
 42
0.0000001
 43
0.0000001
 44
0.0000000001
 40
0.0
 40
0.0
 40
0.0
 40
0.0
 40
0.2174892455
 40
1.0
 40
1.0
 40
1.0
 40
1.0
 10
420.9740367655
 20
343.2670876573
 30
0.0
 10
420.9737098437
 20
343.259977761
 30
0.0
 10
420.9669123202
 20
343.2275873077
 30
0.0
 10
420.9468582775
 20
343.1995944277
 30
0.0
 10
420.9290987704
 20
343.1811454221
 30
0.0
  0
SPLINE
  5
488
100
AcDbEntity
  8
10_ALL_FEATURES
100
AcDbSpline
 62
7
  6
CONTINUOUS
 70
0
 71
3
 72
18
 73
14
 74
0
 42
0.0000001
 43
0.0000001
 44
0.0000000001
 40
0.0
 40
0.0
 40
0.0
 40
0.0
 40
0.0049174425
 40
0.0193379443
 40
0.0431787131
 40
0.0762225506
 40
0.1181709107
 40
0.1685974825
 40
0.2929315434
 40
0.4444517668
 40
0.6172955303
 40
0.8049409957
 40
1.0
 40
1.0
 40
1.0
 40
1.0
 10
456.3839184557
 20
371.7316606702
 30
0.0
 10
456.3839612833
 20
371.7304311461
 30
0.0
 10
456.3763320037
 20
371.7313084739
 30
0.0
 10
456.3682523529
 20
371.7290370464
 30
0.0
 10
456.348916745
 20
371.7289533427
 30
0.0
 10
456.3248701403
 20
371.7276482806
 30
0.0
 10
456.293254684
 20
371.7268273164
 30
0.0
 10
456.239170523
 20
371.7254021249
 30
0.0
 10
456.1574806999
 20
371.7239044764
 30
0.0
 10
456.0452631379
 20
371.7223619167
 30
0.0
 10
455.917161411
 20
371.7211817593
 30
0.0
 10
455.7781764258
 20
371.7204282614
 30
0.0
 10
455.6824287448
 20
371.7202577322
 30
0.0
 10
455.6336279325
 20
371.7202577322
 30
0.0
  0
SPLINE
  5
489
100
AcDbEntity
  8
10_ALL_FEATURES
100
AcDbSpline
 62
7
  6
CONTINUOUS
 70
0
 71
3
 72
18
 73
14
 74
0
 42
0.0000001
 43
0.0000001
 44
0.0000000001
 40
0.0
 40
0.0
 40
0.0
 40
0.0
 40
0.0049174425
 40
0.0193379443
 40
0.0431787131
 40
0.0762225506
 40
0.1181709107
 40
0.1685974825
 40
0.2929315434
 40
0.4444517668
 40
0.6172955303
 40
0.8049409957
 40
1.0
 40
1.0
 40
1.0
 40
1.0
 10
459.2123455804
 20
371.7316606702
 30
0.0
 10
459.212388408
 20
371.7304311461
 30
0.0
 10
459.2047591285
 20
371.7313084739
 30
0.0
 10
459.1966794777
 20
371.7290370464
 30
0.0
 10
459.1773438698
 20
371.7289533427
 30
0.0
 10
459.153297265
 20
371.7276482806
 30
0.0
 10
459.1216818087
 20
371.7268273164
 30
0.0
 10
459.0675976478
 20
371.7254021249
 30
0.0
 10
458.9859078247
 20
371.7239044764
 30
0.0
 10
458.8736902626
 20
371.7223619167
 30
0.0
 10
458.7455885358
 20
371.7211817593
 30
0.0
 10
458.6066035506
 20
371.7204282614
 30
0.0
 10
458.5108558695
 20
371.7202577322
 30
0.0
 10
458.4620550572
 20
371.7202577322
 30
0.0
  0
SPLINE
  5
48A
100
AcDbEntity
  8
10_ALL_FEATURES
100
AcDbSpline
 62
7
  6
CONTINUOUS
 70
0
 71
3
 72
9
 73
5
 74
0
 42
0.0000001
 43
0.0000001
 44
0.0000000001
 40
0.0
 40
0.0
 40
0.0
 40
0.0
 40
0.5029593877
 40
1.0
 40
1.0
 40
1.0
 40
1.0
 10
425.7951731154
 20
259.3531121491
 30
0.0
 10
425.5263886574
 20
259.2104623585
 30
0.0
 10
424.9557949435
 20
258.9899629509
 30
0.0
 10
424.3485301179
 20
258.9147521258
 30
0.0
 10
424.0478183032
 20
258.9147521255
 30
0.0
  0
SPLINE
  5
48B
100
AcDbEntity
  8
10_ALL_FEATURES
100
AcDbSpline
 62
7
  6
CONTINUOUS
 70
0
 71
3
 72
9
 73
5
 74
0
 42
0.0000001
 43
0.0000001
 44
0.0000000001
 40
0.0
 40
0.0
 40
0.0
 40
0.0
 40
0.4724319565
 40
1.0
 40
1.0
 40
1.0
 40
1.0
 10
484.2394474159
 20
265.9059167406
 30
0.0
 10
483.7226313207
 20
266.780154933
 30
0.0
 10
482.5444959417
 20
268.5818461276
 30
0.0
 10
481.2204192196
 20
270.278351411
 30
0.0
 10
480.4935618766
 20
271.1489022771
 30
0.0
  0
SPLINE
  5
48C
100
AcDbEntity
  8
10_ALL_FEATURES
100
AcDbSpline
 62
7
  6
CONTINUOUS
 70
0
 71
3
 72
11
 73
7
 74
0
 42
0.0000001
 43
0.0000001
 44
0.0000000001
 40
0.0
 40
0.0
 40
0.0
 40
0.0
 40
0.2482646323
 40
0.4977905478
 40
0.7485179631
 40
1.0
 40
1.0
 40
1.0
 40
1.0
 10
487.6808465512
 20
263.9147521256
 30
0.0
 10
487.3375792222
 20
263.9147521259
 30
0.0
 10
486.6459485894
 20
264.0072048367
 30
0.0
 10
485.680737019
 20
264.41119152
 30
0.0
 10
484.8475290333
 20
265.0510439233
 30
0.0
 10
484.416397894
 20
265.6065926869
 30
0.0
 10
484.2394484476
 20
265.9059173606
 30
0.0
  0
SPLINE
  5
48D
100
AcDbEntity
  8
10_ALL_FEATURES
100
AcDbSpline
 62
7
  6
CONTINUOUS
 70
0
 71
3
 72
8
 73
4
 74
0
 42
0.0000001
 43
0.0000001
 44
0.0000000001
 40
0.0
 40
0.0
 40
0.0
 40
0.0
 40
1.0
 40
1.0
 40
1.0
 40
1.0
 10
372.2979704403
 20
314.4151336656
 30
0.0
 10
372.3022143962
 20
314.3918495509
 30
0.0
 10
372.3071949883
 20
314.3687056862
 30
0.0
 10
372.3117476197
 20
314.3454799525
 30
0.0
  0
SPLINE
  5
48E
100
AcDbEntity
  8
10_ALL_FEATURES
100
AcDbSpline
 62
7
  6
CONTINUOUS
 70
0
 71
3
 72
12
 73
8
 74
0
 42
0.0000001
 43
0.0000001
 44
0.0000000001
 40
0.0
 40
0.0
 40
0.0
 40
0.0
 40
0.1905204287
 40
0.4323471758
 40
0.7161507024
 40
0.8633816387
 40
1.0
 40
1.0
 40
1.0
 40
1.0
 10
372.3117476197
 20
314.3454799525
 30
0.0
 10
372.3234382899
 20
314.2858387539
 30
0.0
 10
372.3409951176
 20
314.148494244
 30
0.0
 10
372.3355715161
 20
313.9195453643
 30
0.0
 10
372.3151222718
 20
313.7058517983
 30
0.0
 10
372.296433015
 20
313.5258258195
 30
0.0
 10
372.2884463159
 20
313.4354459141
 30
0.0
 10
372.288444091
 20
313.3918645382
 30
0.0
  0
SPLINE
  5
48F
100
AcDbEntity
  8
10_ALL_FEATURES
100
AcDbSpline
 62
7
  6
CONTINUOUS
 70
0
 71
3
 72
8
 73
4
 74
0
 42
0.0000001
 43
0.0000001
 44
0.0000000001
 40
0.0
 40
0.0
 40
0.0
 40
0.0
 40
1.0
 40
1.0
 40
1.0
 40
1.0
 10
372.2942567862
 20
314.4367322731
 30
0.0
 10
372.2905739718
 20
314.4599892842
 30
0.0
 10
372.2884449041
 20
314.4835863787
 30
0.0
 10
372.2884449041
 20
314.5071331765
 30
0.0
  0
SPLINE
  5
490
100
AcDbEntity
  8
10_ALL_FEATURES
100
AcDbSpline
 62
7
  6
CONTINUOUS
 70
0
 71
3
 72
18
 73
14
 74
0
 42
0.0000001
 43
0.0000001
 44
0.0000000001
 40
0.0
 40
0.0
 40
0.0
 40
0.0
 40
0.1950589893
 40
0.382704488
 40
0.5555482494
 40
0.7070685403
 40
0.8314027552
 40
0.8818292819
 40
0.9237775417
 40
0.9568213301
 40
0.9806620635
 40
0.9950825626
 40
1.0
 40
1.0
 40
1.0
 40
1.0
 10
458.4620550572
 20
371.7202577322
 30
0.0
 10
458.4132542487
 20
371.7202577322
 30
0.0
 10
458.317506563
 20
371.7204282613
 30
0.0
 10
458.1785215738
 20
371.7211817596
 30
0.0
 10
458.0504198222
 20
371.7223619165
 30
0.0
 10
457.9382022055
 20
371.7239044779
 30
0.0
 10
457.8565123376
 20
371.7254021279
 30
0.0
 10
457.8024281754
 20
371.726827319
 30
0.0
 10
457.7708127663
 20
371.7276482841
 30
0.0
 10
457.746766212
 20
371.7289533433
 30
0.0
 10
457.7274306156
 20
371.7290370495
 30
0.0
 10
457.7193509963
 20
371.7313084726
 30
0.0
 10
457.7117216965
 20
371.7304311477
 30
0.0
 10
457.7117645341
 20
371.7316606702
 30
0.0
  0
SPLINE
  5
491
100
AcDbEntity
  8
10_ALL_FEATURES
100
AcDbSpline
 62
7
  6
CONTINUOUS
 70
0
 71
3
 72
18
 73
14
 74
0
 42
0.0000001
 43
0.0000001
 44
0.0000000001
 40
0.0
 40
0.0
 40
0.0
 40
0.0
 40
0.1950589893
 40
0.382704488
 40
0.5555482494
 40
0.7070685403
 40
0.8314027552
 40
0.8818292819
 40
0.9237775417
 40
0.9568213301
 40
0.9806620635
 40
0.9950825626
 40
1.0
 40
1.0
 40
1.0
 40
1.0
 10
455.6336279325
 20
371.7202577322
 30
0.0
 10
455.5848271239
 20
371.7202577322
 30
0.0
 10
455.4890794383
 20
371.7204282613
 30
0.0
 10
455.3500944491
 20
371.7211817596
 30
0.0
 10
455.2219926974
 20
371.7223619165
 30
0.0
 10
455.1097750808
 20
371.7239044779
 30
0.0
 10
455.0280852128
 20
371.7254021279
 30
0.0
 10
454.9740010507
 20
371.726827319
 30
0.0
 10
454.9423856416
 20
371.7276482841
 30
0.0
 10
454.9183390872
 20
371.7289533433
 30
0.0
 10
454.8990034908
 20
371.7290370495
 30
0.0
 10
454.8909238715
 20
371.7313084726
 30
0.0
 10
454.8832945718
 20
371.7304311477
 30
0.0
 10
454.8833374093
 20
371.7316606702
 30
0.0
  0
SPLINE
  5
492
100
AcDbEntity
  8
10_ALL_FEATURES
100
AcDbSpline
 62
7
  6
CONTINUOUS
 70
0
 71
3
 72
9
 73
5
 74
0
 42
0.0000001
 43
0.0000001
 44
0.0000000001
 40
0.0
 40
0.0
 40
0.0
 40
0.0
 40
0.5003698118
 40
1.0
 40
1.0
 40
1.0
 40
1.0
 10
473.2838971809
 20
273.5338765412
 30
0.0
 10
472.9692434413
 20
273.5986219297
 30
0.0
 10
472.3520502288
 20
273.7929642933
 30
0.0
 10
471.7876034418
 20
274.1098584709
 30
0.0
 10
471.5260995863
 20
274.2956266392
 30
0.0
  0
SPLINE
  5
493
100
AcDbEntity
  8
10_ALL_FEATURES
100
AcDbSpline
 62
7
  6
CONTINUOUS
 70
0
 71
3
 72
9
 73
5
 74
0
 42
0.0000001
 43
0.0000001
 44
0.0000000001
 40
0.0
 40
0.0
 40
0.0
 40
0.0
 40
0.4996301857
 40
1.0
 40
1.0
 40
1.0
 40
1.0
 10
442.5695856238
 20
274.295628182
 30
0.0
 10
442.3080817171
 20
274.1098599718
 30
0.0
 10
441.7436348574
 20
273.7929656461
 30
0.0
 10
441.1264414797
 20
273.5986232994
 30
0.0
 10
440.8117876578
 20
273.5338779672
 30
0.0
  0
SPLINE
  5
494
100
AcDbEntity
  8
10_ALL_FEATURES
100
AcDbSpline
 62
7
  6
CONTINUOUS
 70
0
 71
3
 72
9
 73
5
 74
0
 42
0.0000001
 43
0.0000001
 44
0.0000000001
 40
0.0
 40
0.0
 40
0.0
 40
0.0
 40
0.501244681
 40
1.0
 40
1.0
 40
1.0
 40
1.0
 10
427.7060141349
 20
261.4979622799
 30
0.0
 10
427.5311522982
 20
261.0423826142
 30
0.0
 10
427.014686754
 20
260.1889533629
 30
0.0
 10
426.2265055568
 20
259.5760973912
 30
0.0
 10
425.7951731154
 20
259.3531121491
 30
0.0
  0
SPLINE
  5
495
100
AcDbEntity
  8
10_ALL_FEATURES
100
AcDbSpline
 62
7
  6
CONTINUOUS
 70
0
 71
3
 72
10
 73
6
 74
0
 42
0.0000001
 43
0.0000001
 44
0.0000000001
 40
0.0
 40
0.0
 40
0.0
 40
0.0
 40
0.2935779508
 40
0.5571188161
 40
1.0
 40
1.0
 40
1.0
 40
1.0
 10
433.6021213477
 20
271.148890351
 30
0.0
 10
432.8900651949
 20
270.2960582941
 30
0.0
 10
431.5900596554
 20
268.6326424736
 30
0.0
 10
429.5092106673
 20
265.4691273682
 30
0.0
 10
428.3065935943
 20
263.0626948335
 30
0.0
 10
427.706013783
 20
261.4979624133
 30
0.0
  0
SPLINE
  5
496
100
AcDbEntity
  8
10_ALL_FEATURES
100
AcDbSpline
 62
7
  6
CONTINUOUS
 70
0
 71
3
 72
9
 73
5
 74
0
 42
0.0000001
 43
0.0000001
 44
0.0000000001
 40
0.0
 40
0.0
 40
0.0
 40
0.0
 40
0.7621139619
 40
1.0
 40
1.0
 40
1.0
 40
1.0
 10
422.5706115162
 20
349.8194330207
 30
0.0
 10
422.5529439588
 20
349.8083674012
 30
0.0
 10
422.5274545172
 20
349.7966834673
 30
0.0
 10
422.5003808383
 20
349.7921195392
 30
0.0
 10
422.4938917147
 20
349.7916358522
 30
0.0
  0
SPLINE
  5
497
100
AcDbEntity
  8
10_ALL_FEATURES
100
AcDbSpline
 62
7
  6
CONTINUOUS
 70
0
 71
3
 72
9
 73
5
 74
0
 42
0.0000001
 43
0.0000001
 44
0.0000000001
 40
0.0
 40
0.0
 40
0.0
 40
0.0
 40
0.7618027798
 40
1.0
 40
1.0
 40
1.0
 40
1.0
 10
420.3016283098
 20
345.658646828
 30
0.0
 10
420.284287996
 20
345.6466154044
 30
0.0
 10
420.2589093046
 20
345.6336214977
 30
0.0
 10
420.2315299375
 20
345.6285755377
 30
0.0
 10
420.2249506472
 20
345.6280636499
 30
0.0
  0
SPLINE
  5
498
100
AcDbEntity
  8
10_ALL_FEATURES
100
AcDbSpline
 62
7
  6
CONTINUOUS
 70
0
 71
3
 72
9
 73
5
 74
0
 42
0.0000001
 43
0.0000001
 44
0.0000000001
 40
0.0
 40
0.0
 40
0.0
 40
0.0
 40
0.7615025166
 40
1.0
 40
1.0
 40
1.0
 40
1.0
 10
418.0332795925
 20
341.0196506828
 30
0.0
 10
418.0163080808
 20
341.0065543489
 30
0.0
 10
417.9910941521
 20
340.9920361952
 30
0.0
 10
417.9633282075
 20
340.9863913105
 30
0.0
 10
417.956636628
 20
340.9858438928
 30
0.0
  0
SPLINE
  5
499
100
AcDbEntity
  8
10_ALL_FEATURES
100
AcDbSpline
 62
7
  6
CONTINUOUS
 70
0
 71
3
 72
11
 73
7
 74
0
 42
0.0000001
 43
0.0000001
 44
0.0000000001
 40
0.0
 40
0.0
 40
0.0
 40
0.0
 40
0.1533408943
 40
0.3818247922
 40
0.6694812741
 40
1.0
 40
1.0
 40
1.0
 40
1.0
 10
403.521224588
 20
359.7115099484
 30
0.0
 10
403.6086874828
 20
359.7404016588
 30
0.0
 10
403.8206517267
 20
359.8290090318
 30
0.0
 10
404.1861816297
 20
359.9963813226
 30
0.0
 10
404.643397809
 20
360.2193486195
 30
0.0
 10
404.9748622183
 20
360.3867214029
 30
0.0
 10
405.1516122563
 20
360.4771541554
 30
0.0
  0
SPLINE
  5
49A
100
AcDbEntity
  8
10_ALL_FEATURES
100
AcDbSpline
 62
7
  6
CONTINUOUS
 70
0
 71
3
 72
14
 73
10
 74
0
 42
0.0000001
 43
0.0000001
 44
0.0000000001
 40
0.0
 40
0.0
 40
0.0
 40
0.0
 40
0.3600671859
 40
0.5212915527
 40
0.6653815918
 40
0.7886322402
 40
0.8874237019
 40
0.9585829196
 40
1.0
 40
1.0
 40
1.0
 40
1.0
 10
405.4387436256
 20
360.6159249882
 30
0.0
 10
405.2032566746
 20
360.4940520717
 30
0.0
 10
404.86128089
 20
360.3195831676
 30
0.0
 10
404.4217216532
 20
360.1030951638
 30
0.0
 10
404.1369430794
 20
359.9669459818
 30
0.0
 10
403.8918238053
 20
359.8549059081
 30
0.0
 10
403.6932413465
 20
359.7692371765
 30
0.0
 10
403.5479270711
 20
359.7152019562
 30
0.0
 10
403.4677322964
 20
359.6901675898
 30
0.0
 10
403.4373025495
 20
359.6881030811
 30
0.0
  0
SPLINE
  5
49B
100
AcDbEntity
  8
10_ALL_FEATURES
100
AcDbSpline
 62
7
  6
CONTINUOUS
 70
0
 71
3
 72
13
 73
9
 74
0
 42
0.0000001
 43
0.0000001
 44
0.0000000001
 40
0.0
 40
0.0
 40
0.0
 40
0.0
 40
0.3507856177
 40
0.6499771579
 40
0.7726571759
 40
0.8734223873
 40
0.9497753752
 40
1.0
 40
1.0
 40
1.0
 40
1.0
 10
410.8091442728
 20
363.2101292795
 30
0.0
 10
410.579620761
 20
363.1069803231
 30
0.0
 10
410.1527757928
 20
362.9193345793
 30
0.0
 10
409.6404889422
 20
362.7073794534
 30
0.0
 10
409.2898537438
 20
362.5747202227
 30
0.0
 10
409.0865396654
 20
362.5041447438
 30
0.0
 10
408.9302564836
 20
362.4581549001
 30
0.0
 10
408.8409760844
 20
362.4387305244
 30
0.0
 10
408.805026112
 20
362.4363508507
 30
0.0
  0
SPLINE
  5
49C
100
AcDbEntity
  8
10_ALL_FEATURES
100
AcDbSpline
 62
7
  6
CONTINUOUS
 70
0
 71
3
 72
12
 73
8
 74
0
 42
0.0000001
 43
0.0000001
 44
0.0000000001
 40
0.0
 40
0.0
 40
0.0
 40
0.0
 40
0.3383232226
 40
0.6302713154
 40
0.8563411638
 40
0.9392524482
 40
1.0
 40
1.0
 40
1.0
 40
1.0
 10
416.4007341041
 20
365.5358490275
 30
0.0
 10
416.1819392053
 20
365.4520142298
 30
0.0
 10
415.7727869107
 20
365.2997253322
 30
0.0
 10
415.2115099411
 20
365.1082499555
 30
0.0
 10
414.8124293243
 20
364.9887566082
 30
0.0
 10
414.5627097071
 20
364.9321136748
 30
0.0
 10
414.4641208524
 20
364.9168245562
 30
0.0
 10
414.4221380127
 20
364.9141049973
 30
0.0
  0
SPLINE
  5
49D
100
AcDbEntity
  8
10_ALL_FEATURES
100
AcDbSpline
 62
7
  6
CONTINUOUS
 70
0
 71
3
 72
11
 73
7
 74
0
 42
0.0000001
 43
0.0000001
 44
0.0000000001
 40
0.0
 40
0.0
 40
0.0
 40
0.0
 40
0.3222195883
 40
0.6056088855
 40
0.8356564576
 40
1.0
 40
1.0
 40
1.0
 40
1.0
 10
422.35781688
 20
367.6186501998
 30
0.0
 10
422.1569979555
 20
367.5550453488
 30
0.0
 10
421.7782178322
 20
367.4397593743
 30
0.0
 10
421.2510056745
 20
367.2957529073
 30
0.0
 10
420.8190691915
 20
367.1973727187
 30
0.0
 10
420.5637980163
 20
367.1558905285
 30
0.0
 10
420.4565748259
 20
367.1490758261
 30
0.0
  0
SPLINE
  5
49E
100
AcDbEntity
  8
10_ALL_FEATURES
100
AcDbSpline
 62
7
  6
CONTINUOUS
 70
0
 71
3
 72
11
 73
7
 74
0
 42
0.0000001
 43
0.0000001
 44
0.0000000001
 40
0.0
 40
0.0
 40
0.0
 40
0.0
 40
0.3208574588
 40
0.5696086537
 40
0.7799797669
 40
1.0
 40
1.0
 40
1.0
 40
1.0
 10
402.3594546984
 20
348.2790771943
 30
0.0
 10
402.2864228803
 20
348.2735474224
 30
0.0
 10
402.1552461115
 20
348.2745453412
 30
0.0
 10
401.9810945131
 20
348.3329197488
 30
0.0
 10
401.87361589
 20
348.4552647097
 30
0.0
 10
401.8560512941
 20
348.5561012638
 30
0.0
 10
401.8551771046
 20
348.6063168073
 30
0.0
  0
SPLINE
  5
49F
100
AcDbEntity
  8
10_ALL_FEATURES
100
AcDbSpline
 62
7
  6
CONTINUOUS
 70
0
 71
3
 72
11
 73
7
 74
0
 42
0.0000001
 43
0.0000001
 44
0.0000000001
 40
0.0
 40
0.0
 40
0.0
 40
0.0
 40
0.3089296014
 40
0.551810098
 40
0.7673214228
 40
1.0
 40
1.0
 40
1.0
 40
1.0
 10
398.461207789
 20
343.9190889667
 30
0.0
 10
398.3875920752
 20
343.913254283
 30
0.0
 10
398.2539397269
 20
343.9149889272
 30
0.0
 10
398.0770614882
 20
343.9855036233
 30
0.0
 10
397.9734766582
 20
344.1241721635
 30
0.0
 10
397.9570342599
 20
344.2333926503
 30
0.0
 10
397.9560655262
 20
344.289003734
 30
0.0
  0
SPLINE
  5
4A0
100
AcDbEntity
  8
10_ALL_FEATURES
100
AcDbSpline
 62
7
  6
CONTINUOUS
 70
0
 71
3
 72
11
 73
7
 74
0
 42
0.0000001
 43
0.0000001
 44
0.0000000001
 40
0.0
 40
0.0
 40
0.0
 40
0.0
 40
0.2962776707
 40
0.533497068
 40
0.7549346374
 40
1.0
 40
1.0
 40
1.0
 40
1.0
 10
394.5701874327
 20
339.0515298484
 30
0.0
 10
394.4961014825
 20
339.0453336536
 30
0.0
 10
394.3595265092
 20
339.0480753743
 30
0.0
 10
394.1810536209
 20
339.133338186
 30
0.0
 10
394.0825974278
 20
339.2892037646
 30
0.0
 10
394.0669766528
 20
339.4077407952
 30
0.0
 10
394.0659059147
 20
339.4692254369
 30
0.0
  0
SPLINE
  5
4A1
100
AcDbEntity
  8
10_ALL_FEATURES
100
AcDbSpline
 62
7
  6
CONTINUOUS
 70
0
 71
3
 72
12
 73
8
 74
0
 42
0.0000001
 43
0.0000001
 44
0.0000000001
 40
0.0
 40
0.0
 40
0.0
 40
0.0
 40
0.2600069748
 40
0.3916952105
 40
0.5202850769
 40
0.7668653346
 40
1.0
 40
1.0
 40
1.0
 40
1.0
 10
492.4148952736
 20
323.252725439
 30
0.0
 10
492.1165010407
 20
323.2846704307
 30
0.0
 10
491.6894493277
 20
323.5038883142
 30
0.0
 10
491.2397029277
 20
323.8984857224
 30
0.0
 10
490.8509102174
 20
324.3384954204
 30
0.0
 10
490.4700812204
 20
324.9328592394
 30
0.0
 10
490.2531740429
 20
325.4456397187
 30
0.0
 10
490.1710712919
 20
325.7018915491
 30
0.0
  0
SPLINE
  5
4A2
100
AcDbEntity
  8
10_ALL_FEATURES
100
AcDbSpline
 62
7
  6
CONTINUOUS
 70
0
 71
3
 72
13
 73
9
 74
0
 42
0.0000001
 43
0.0000001
 44
0.0000000001
 40
0.0
 40
0.0
 40
0.0
 40
0.0
 40
0.1279257298
 40
0.2596787763
 40
0.389977035
 40
0.5175838794
 40
0.7641644455
 40
1.0
 40
1.0
 40
1.0
 40
1.0
 10
493.7894784399
 20
317.0409391869
 30
0.0
 10
493.6287726391
 20
317.0599054805
 30
0.0
 10
493.3120044602
 20
317.1769638348
 30
0.0
 10
492.9112003251
 20
317.4689055914
 30
0.0
 10
492.5664388775
 20
317.8238045942
 30
0.0
 10
492.1813451536
 20
318.3340281033
 30
0.0
 10
491.8075050529
 20
319.0136735252
 30
0.0
 10
491.598049954
 20
319.5896160261
 30
0.0
 10
491.5187911853
 20
319.8772174764
 30
0.0
  0
SPLINE
  5
4A3
100
AcDbEntity
  8
10_ALL_FEATURES
100
AcDbSpline
 62
7
  6
CONTINUOUS
 70
0
 71
3
 72
13
 73
9
 74
0
 42
0.0000001
 43
0.0000001
 44
0.0000000001
 40
0.0
 40
0.0
 40
0.0
 40
0.0
 40
0.1269555553
 40
0.2575813721
 40
0.3867661334
 40
0.5137519946
 40
0.7610220605
 40
1.0
 40
1.0
 40
1.0
 40
1.0
 10
495.1704290164
 20
309.8247917763
 30
0.0
 10
494.9896179319
 20
309.8490070315
 30
0.0
 10
494.6403219695
 20
310.0115888273
 30
0.0
 10
494.2261755124
 20
310.384852901
 30
0.0
 10
493.8779241076
 20
310.8207496498
 30
0.0
 10
493.4941616012
 20
311.4350851629
 30
0.0
 10
493.1260433981
 20
312.2397244964
 30
0.0
 10
492.9232547306
 20
312.9107288167
 30
0.0
 10
492.8471020311
 20
313.2455713243
 30
0.0
  0
SPLINE
  5
4A4
100
AcDbEntity
  8
10_ALL_FEATURES
100
AcDbSpline
 62
7
  6
CONTINUOUS
 70
0
 71
3
 72
9
 73
5
 74
0
 42
0.0000001
 43
0.0000001
 44
0.0000000001
 40
0.0
 40
0.0
 40
0.0
 40
0.0
 40
0.7493075845
 40
1.0
 40
1.0
 40
1.0
 40
1.0
 10
470.511433521
 20
274.9796921185
 30
0.0
 10
470.88576226
 20
274.740440998
 30
0.0
 10
471.4345289723
 20
274.4899802087
 30
0.0
 10
472.009734336
 20
274.3450890791
 30
0.0
 10
472.1553602402
 20
274.3153444456
 30
0.0
  0
SPLINE
  5
4A5
100
AcDbEntity
  8
10_ALL_FEATURES
100
AcDbSpline
 62
7
  6
CONTINUOUS
 70
0
 71
3
 72
9
 73
5
 74
0
 42
0.0000001
 43
0.0000001
 44
0.0000000001
 40
0.0
 40
0.0
 40
0.0
 40
0.0
 40
0.2506924189
 40
1.0
 40
1.0
 40
1.0
 40
1.0
 10
441.9403245243
 20
274.315346066
 30
0.0
 10
442.0859502192
 20
274.3450906921
 30
0.0
 10
442.6611547629
 20
274.4899814598
 30
0.0
 10
443.209921296
 20
274.7404409238
 30
0.0
 10
443.5842492006
 20
274.9796921889
 30
0.0
  0
SPLINE
  5
4A6
100
AcDbEntity
  8
10_ALL_FEATURES
100
AcDbSpline
 62
7
  6
CONTINUOUS
 70
0
 71
3
 72
9
 73
5
 74
0
 42
0.0000001
 43
0.0000001
 44
0.0000000001
 40
0.0
 40
0.0
 40
0.0
 40
0.0
 40
0.2171096593
 40
1.0
 40
1.0
 40
1.0
 40
1.0
 10
402.7247869765
 20
349.9203695818
 30
0.0
 10
404.3401936332
 20
350.0437636783
 30
0.0
 10
411.780788194
 20
350.6110090465
 30
0.0
 10
419.221765923
 20
351.1732302005
 30
0.0
 10
425.0474565996
 20
351.6104322592
 30
0.0
  0
SPLINE
  5
4A7
100
AcDbEntity
  8
10_ALL_FEATURES
100
AcDbSpline
 62
7
  6
CONTINUOUS
 70
0
 71
3
 72
11
 73
7
 74
0
 42
0.0000001
 43
0.0000001
 44
0.0000000001
 40
0.0
 40
0.0
 40
0.0
 40
0.0
 40
0.251485435
 40
0.5022153421
 40
0.7517383481
 40
1.0
 40
1.0
 40
1.0
 40
1.0
 10
484.7663280865
 20
265.9510325468
 30
0.0
 10
484.9414361454
 20
265.6457092036
 30
0.0
 10
485.3714709398
 20
265.078176427
 30
0.0
 10
486.2097405787
 20
264.4233940546
 30
0.0
 10
487.1849839029
 20
264.009509141
 30
0.0
 10
487.8851511045
 20
263.9147521258
 30
0.0
 10
488.2326124322
 20
263.9147521258
 30
0.0
  0
SPLINE
  5
4A8
100
AcDbEntity
  8
10_ALL_FEATURES
100
AcDbSpline
 62
7
  6
CONTINUOUS
 70
0
 71
3
 72
9
 73
5
 74
0
 42
0.0000001
 43
0.0000001
 44
0.0000000001
 40
0.0
 40
0.0
 40
0.0
 40
0.0
 40
0.4713843085
 40
1.0
 40
1.0
 40
1.0
 40
1.0
 10
484.7663269923
 20
265.951031902
 30
0.0
 10
484.226080531
 20
266.8930203331
 30
0.0
 10
482.9861284637
 20
268.8386185152
 30
0.0
 10
481.5826984509
 20
270.6689181766
 30
0.0
 10
480.809031614
 20
271.6093270761
 30
0.0
  0
SPLINE
  5
4A9
100
AcDbEntity
  8
10_ALL_FEATURES
100
AcDbSpline
 62
7
  6
CONTINUOUS
 70
0
 71
3
 72
10
 73
6
 74
0
 42
0.0000001
 43
0.0000001
 44
0.0000000001
 40
0.0
 40
0.0
 40
0.0
 40
0.0
 40
0.2938680793
 40
0.5575626915
 40
1.0
 40
1.0
 40
1.0
 40
1.0
 10
433.2866517044
 20
271.6093141526
 30
0.0
 10
432.5512462227
 20
270.7154031161
 30
0.0
 10
431.2100618981
 20
268.972552441
 30
0.0
 10
429.0697314838
 20
265.663075511
 30
0.0
 10
427.8372156647
 20
263.1504889206
 30
0.0
 10
427.2224242694
 20
261.5197801957
 30
0.0
  0
SPLINE
  5
4AA
100
AcDbEntity
  8
10_ALL_FEATURES
100
AcDbSpline
 62
7
  6
CONTINUOUS
 70
0
 71
3
 72
9
 73
5
 74
0
 42
0.0000001
 43
0.0000001
 44
0.0000000001
 40
0.0
 40
0.0
 40
0.0
 40
0.0
 40
0.4985493521
 40
1.0
 40
1.0
 40
1.0
 40
1.0
 10
425.0474565996
 20
259.2320166556
 30
0.0
 10
425.5394441275
 20
259.4431268873
 30
0.0
 10
426.448054447
 20
260.0765514455
 30
0.0
 10
427.0324631091
 20
261.0159154649
 30
0.0
 10
427.2224246049
 20
261.5197800716
 30
0.0
  0
SPLINE
  5
4AB
100
AcDbEntity
  8
10_ALL_FEATURES
100
AcDbSpline
 62
7
  6
CONTINUOUS
 70
0
 71
3
 72
18
 73
14
 74
0
 42
0.0000001
 43
0.0000001
 44
0.0000000001
 40
0.0
 40
0.0
 40
0.0
 40
0.0
 40
0.0049779439
 40
0.0194510616
 40
0.0433347464
 40
0.0764124844
 40
0.1183855169
 40
0.1688279682
 40
0.2931685597
 40
0.4446636465
 40
0.6174545381
 40
0.8050263448
 40
1.0
 40
1.0
 40
1.0
 40
1.0
 10
454.8833374093
 20
371.7316606702
 30
0.0
 10
454.8833807687
 20
371.7329051696
 30
0.0
 10
454.890882262
 20
371.7318986225
 30
0.0
 10
454.89917761
 20
371.7340916784
 30
0.0
 10
454.9184545303
 20
371.7339248312
 30
0.0
 10
454.9425768206
 20
371.7349461511
 30
0.0
 10
454.9741991963
 20
371.7354005066
 30
0.0
 10
455.0283079334
 20
371.7362355706
 30
0.0
 10
455.1099930728
 20
371.7369305111
 30
0.0
 10
455.2221894885
 20
371.7375701945
 30
0.0
 10
455.3502415063
 20
371.7379836286
 30
0.0
 10
455.489158317
 20
371.7382253338
 30
0.0
 10
455.5848544187
 20
371.7382764564
 30
0.0
 10
455.6336279325
 20
371.7382764564
 30
0.0
  0
SPLINE
  5
4AC
100
AcDbEntity
  8
10_ALL_FEATURES
100
AcDbSpline
 62
7
  6
CONTINUOUS
 70
0
 71
3
 72
9
 73
5
 74
0
 42
0.0000001
 43
0.0000001
 44
0.0000000001
 40
0.0
 40
0.0
 40
0.0
 40
0.0
 40
0.5800014892
 40
1.0
 40
1.0
 40
1.0
 40
1.0
 10
425.3804662032
 20
351.5710219434
 30
0.0
 10
425.3949575232
 20
351.5693324031
 30
0.0
 10
425.4218158049
 20
351.5621720844
 30
0.0
 10
425.4335352018
 20
351.5357865354
 30
0.0
 10
425.4330423162
 20
351.5252333085
 30
0.0
  0
SPLINE
  5
4AD
100
AcDbEntity
  8
10_ALL_FEATURES
100
AcDbSpline
 62
7
  6
CONTINUOUS
 70
0
 71
3
 72
9
 73
5
 74
0
 42
0.0000001
 43
0.0000001
 44
0.0000000001
 40
0.0
 40
0.0
 40
0.0
 40
0.0
 40
0.5692399914
 40
1.0
 40
1.0
 40
1.0
 40
1.0
 10
423.1631362889
 20
347.7031947567
 30
0.0
 10
423.1772590975
 20
347.7043004095
 30
0.0
 10
423.206621419
 20
347.7013969767
 30
0.0
 10
423.2165275897
 20
347.6736910635
 30
0.0
 10
423.2160324795
 20
347.6629826733
 30
0.0
  0
SPLINE
  5
4AE
100
AcDbEntity
  8
10_ALL_FEATURES
100
AcDbSpline
 62
7
  6
CONTINUOUS
 70
0
 71
3
 72
9
 73
5
 74
0
 42
0.0000001
 43
0.0000001
 44
0.0000000001
 40
0.0
 40
0.0
 40
0.0
 40
0.0
 40
0.5516884791
 40
1.0
 40
1.0
 40
1.0
 40
1.0
 10
420.921359745
 20
343.3124874654
 30
0.0
 10
420.9357306551
 20
343.3136697875
 30
0.0
 10
420.9667636155
 20
343.3083653099
 30
0.0
 10
420.9745749821
 20
343.2787927936
 30
0.0
 10
420.9740367655
 20
343.2670876573
 30
0.0
  0
SPLINE
  5
4AF
100
AcDbEntity
  8
10_ALL_FEATURES
100
AcDbSpline
 62
7
  6
CONTINUOUS
 70
0
 71
3
 72
14
 73
10
 74
0
 42
0.0000001
 43
0.0000001
 44
0.0000000001
 40
0.0
 40
0.0
 40
0.0
 40
0.0
 40
0.0169609135
 40
0.0654490779
 40
0.1456246425
 40
0.2569873545
 40
0.3989753309
 40
0.5708645089
 40
1.0
 40
1.0
 40
1.0
 40
1.0
 10
457.7117645341
 20
371.7316606702
 30
0.0
 10
457.7117906908
 20
371.7324114207
 30
0.0
 10
457.716170501
 20
371.7321396326
 30
0.0
 10
457.7211778245
 20
371.7333701415
 30
0.0
 10
457.7325946145
 20
371.7335338052
 30
0.0
 10
457.7470072833
 20
371.734244414
 30
0.0
 10
457.7659686829
 20
371.7346901934
 30
0.0
 10
457.798806051
 20
371.7354091265
 30
0.0
 10
457.8254520319
 20
371.735771078
 30
0.0
 10
457.8444572183
 20
371.736002251
 30
0.0
  0
SPLINE
  5
4B0
100
AcDbEntity
  8
10_ALL_FEATURES
100
AcDbSpline
 62
7
  6
CONTINUOUS
 70
0
 71
3
 72
9
 73
5
 74
0
 42
0.0000001
 43
0.0000001
 44
0.0000000001
 40
0.0
 40
0.0
 40
0.0
 40
0.0
 40
0.1942106781
 40
1.0
 40
1.0
 40
1.0
 40
1.0
 10
457.8444572183
 20
371.736002251
 30
0.0
 10
457.8844360244
 20
371.7364885406
 30
0.0
 10
458.0902989322
 20
371.7381015542
 30
0.0
 10
458.2961688224
 20
371.7382764564
 30
0.0
 10
458.4620550572
 20
371.7382764564
 30
0.0
  0
SPLINE
  5
4B1
100
AcDbEntity
  8
10_ALL_FEATURES
100
AcDbSpline
 62
7
  6
CONTINUOUS
 70
0
 71
3
 72
10
 73
6
 74
0
 42
0.0000001
 43
0.0000001
 44
0.0000000001
 40
0.0
 40
0.0
 40
0.0
 40
0.0
 40
0.5175255497
 40
0.7827536606
 40
1.0
 40
1.0
 40
1.0
 40
1.0
 10
394.8151273553
 20
341.0441259471
 30
0.0
 10
394.8341062603
 20
341.0685225919
 30
0.0
 10
394.8675051166
 20
341.1022973021
 30
0.0
 10
394.9162773628
 20
341.1362310206
 30
0.0
 10
394.9434617795
 20
341.1486255772
 30
0.0
 10
394.9563910146
 20
341.1497160978
 30
0.0
  0
SPLINE
  5
4B2
100
AcDbEntity
  8
10_ALL_FEATURES
100
AcDbSpline
 62
7
  6
CONTINUOUS
 70
0
 71
3
 72
10
 73
6
 74
0
 42
0.0000001
 43
0.0000001
 44
0.0000000001
 40
0.0
 40
0.0
 40
0.0
 40
0.0
 40
0.5177915351
 40
0.7833618454
 40
1.0
 40
1.0
 40
1.0
 40
1.0
 10
398.6996401369
 20
345.6841599303
 30
0.0
 10
398.7192068078
 20
345.7066831145
 30
0.0
 10
398.7533241444
 20
345.7372809542
 30
0.0
 10
398.8021799671
 20
345.7674410199
 30
0.0
 10
398.8287316548
 20
345.7780484568
 30
0.0
 10
398.8411747249
 20
345.7790433101
 30
0.0
  0
SPLINE
  5
4B3
100
AcDbEntity
  8
10_ALL_FEATURES
100
AcDbSpline
 62
9
  6
CONTINUOUS
 70
0
 71
3
 72
9
 73
5
 74
0
 42
0.0000001
 43
0.0000001
 44
0.0000000001
 40
0.0
 40
0.0
 40
0.0
 40
0.0
 40
0.2884250643
 40
1.0
 40
1.0
 40
1.0
 40
1.0
 10
374.6171285716
 20
307.3798419976
 30
0.0
 10
374.6560036948
 20
307.3791636373
 30
0.0
 10
374.7907913133
 20
307.3771370686
 30
0.0
 10
374.9256023656
 20
307.3757527215
 30
0.0
 10
375.0215239167
 20
307.3763817827
 30
0.0
  0
SPLINE
  5
4B4
100
AcDbEntity
  8
10_ALL_FEATURES
100
AcDbSpline
 62
9
  6
CONTINUOUS
 70
0
 71
3
 72
13
 73
9
 74
0
 42
0.0000001
 43
0.0000001
 44
0.0000000001
 40
0.0
 40
0.0
 40
0.0
 40
0.0
 40
0.4280920142
 40
0.7419540046
 40
0.853349121
 40
0.933568091
 40
0.9823282759
 40
1.0
 40
1.0
 40
1.0
 40
1.0
 10
375.0215239167
 20
307.3763817827
 30
0.0
 10
375.0351855369
 20
307.3764713767
 30
0.0
 10
375.0587803075
 20
307.3767353674
 30
0.0
 10
375.0862431525
 20
307.3772379121
 30
0.0
 10
375.1020486571
 20
307.3780101977
 30
0.0
 10
375.1102266576
 20
307.3783448532
 30
0.0
 10
375.1139406615
 20
307.3791354203
 30
0.0
 10
375.1170425766
 20
307.3792794458
 30
0.0
 10
375.1170524192
 20
307.3798433264
 30
0.0
  0
SPLINE
  5
4B5
100
AcDbEntity
  8
10_ALL_FEATURES
100
AcDbSpline
 62
9
  6
CONTINUOUS
 70
0
 71
3
 72
27
 73
23
 74
0
 42
0.0000001
 43
0.0000001
 44
0.0000000001
 40
0.0
 40
0.0
 40
0.0
 40
0.0
 40
0.1354801367
 40
0.270940263
 40
0.4062689696
 40
0.5412479784
 40
0.6084692204
 40
0.6753588228
 40
0.7416719102
 40
0.774463389
 40
0.8068592641
 40
0.8386294011
 40
0.8693153348
 40
0.8978526839
 40
0.9105486184
 40
0.9213670132
 40
0.9292956334
 40
0.9346837501
 40
0.9410497719
 40
0.9499999505
 40
0.9731246846
 40
1.0
 40
1.0
 40
1.0
 40
1.0
 10
374.7970691199
 20
317.6886291053
 30
0.0
 10
374.8158035426
 20
317.7731678914
 30
0.0
 10
374.8539887203
 20
317.9420747296
 30
0.0
 10
374.9136645739
 20
318.1947886716
 30
0.0
 10
374.9761217618
 20
318.4465010931
 30
0.0
 10
375.0310243653
 20
318.6551351171
 30
0.0
 10
375.0772396087
 20
318.8207969613
 30
0.0
 10
375.1131894746
 20
318.9437500444
 30
0.0
 10
375.1446137127
 20
319.0450902399
 30
0.0
 10
375.1709545297
 20
319.1249041787
 30
0.0
 10
375.1912857083
 20
319.1834474112
 30
0.0
 10
375.2123672574
 20
319.2402884851
 30
0.0
 10
375.234271213
 20
319.294194334
 30
0.0
 10
375.2536991024
 20
319.3358389623
 30
0.0
 10
375.2702030945
 20
319.3648870132
 30
0.0
 10
375.282064663
 20
319.3809045169
 30
0.0
 10
375.2931024684
 20
319.3925061707
 30
0.0
 10
375.3074992349
 20
319.3933201911
 30
0.0
 10
375.315144779
 20
319.3806390453
 30
0.0
 10
375.3216090352
 20
319.357507036
 30
0.0
 10
375.324735073
 20
319.3193145569
 30
0.0
 10
375.3249014764
 20
319.2875196706
 30
0.0
 10
375.3246019049
 20
319.2703453971
 30
0.0
  0
SPLINE
  5
4B6
100
AcDbEntity
  8
10_ALL_FEATURES
100
AcDbSpline
 62
7
  6
CONTINUOUS
 70
0
 71
3
 72
10
 73
6
 74
0
 42
0.0000001
 43
0.0000001
 44
0.0000000001
 40
0.0
 40
0.0
 40
0.0
 40
0.0
 40
0.5173525027
 40
0.7833666112
 40
1.0
 40
1.0
 40
1.0
 40
1.0
 10
402.5826456654
 20
349.8343761825
 30
0.0
 10
402.6027744401
 20
349.855281553
 30
0.0
 10
402.6375805687
 20
349.8831412431
 30
0.0
 10
402.6865589519
 20
349.910192786
 30
0.0
 10
402.7126702956
 20
349.9194440397
 30
0.0
 10
402.7247869765
 20
349.9203695818
 30
0.0
  0
SPLINE
  5
4B7
100
AcDbEntity
  8
10_ALL_FEATURES
100
AcDbSpline
 62
9
  6
CONTINUOUS
 70
0
 71
3
 72
10
 73
6
 74
0
 42
0.0000001
 43
0.0000001
 44
0.0000000001
 40
0.0
 40
0.0
 40
0.0
 40
0.0
 40
0.3773519034
 40
0.629240832
 40
1.0
 40
1.0
 40
1.0
 40
1.0
 10
375.0949476284
 20
305.7300665019
 30
0.0
 10
375.0418950538
 20
305.5859209805
 30
0.0
 10
374.894116832
 20
305.3626412082
 30
0.0
 10
374.5561249445
 20
305.1281538164
 30
0.0
 10
374.2988780261
 20
305.0671839911
 30
0.0
 10
374.1479668747
 20
305.0661065861
 30
0.0
  0
SPLINE
  5
4B8
100
AcDbEntity
  8
10_ALL_FEATURES
100
AcDbSpline
 62
7
  6
CONTINUOUS
 70
0
 71
3
 72
18
 73
14
 74
0
 42
0.0000001
 43
0.0000001
 44
0.0000000001
 40
0.0
 40
0.0
 40
0.0
 40
0.0
 40
0.1949736402
 40
0.3825454809
 40
0.5553363705
 40
0.7068315242
 40
0.8311722701
 40
0.8816146769
 40
0.9235876085
 40
0.9566652969
 40
0.9805489462
 40
0.995022061
 40
1.0
 40
1.0
 40
1.0
 40
1.0
 10
458.4620550572
 20
371.7382764564
 30
0.0
 10
458.5108285673
 20
371.7382764564
 30
0.0
 10
458.6065246737
 20
371.7382253339
 30
0.0
 10
458.7454414887
 20
371.7379836284
 30
0.0
 10
458.8734935314
 20
371.7375701948
 30
0.0
 10
458.9856900016
 20
371.7369305101
 30
0.0
 10
459.067375186
 20
371.7362355692
 30
0.0
 10
459.1214839244
 20
371.7354005053
 30
0.0
 10
459.1531062528
 20
371.7349461483
 30
0.0
 10
459.1772284923
 20
371.7339248314
 30
0.0
 10
459.1965054011
 20
371.7340916759
 30
0.0
 10
459.2048007174
 20
371.731898623
 30
0.0
 10
459.2123022312
 20
371.7329051687
 30
0.0
 10
459.2123455804
 20
371.7316606702
 30
0.0
  0
SPLINE
  5
4B9
100
AcDbEntity
  8
10_ALL_FEATURES
100
AcDbSpline
 62
7
  6
CONTINUOUS
 70
0
 71
3
 72
11
 73
7
 74
0
 42
0.0000001
 43
0.0000001
 44
0.0000000001
 40
0.0
 40
0.0
 40
0.0
 40
0.0
 40
0.3573396629
 40
0.6681453628
 40
0.8920568417
 40
1.0
 40
1.0
 40
1.0
 40
1.0
 10
455.6336279325
 20
371.7382764564
 30
0.0
 10
455.7223592706
 20
371.7382764564
 30
0.0
 10
455.8882526509
 20
371.7379677725
 30
0.0
 10
456.1098120752
 20
371.7377657394
 30
0.0
 10
456.2692702334
 20
371.7351811079
 30
0.0
 10
456.3518186836
 20
371.7351865044
 30
0.0
 10
456.378506877
 20
371.7327033562
 30
0.0
  0
SPLINE
  5
4BA
100
AcDbEntity
  8
10_ALL_FEATURES
100
AcDbSpline
 62
7
  6
CONTINUOUS
 70
0
 71
3
 72
9
 73
5
 74
0
 42
0.0000001
 43
0.0000001
 44
0.0000000001
 40
0.0
 40
0.0
 40
0.0
 40
0.0
 40
0.7362622189
 40
1.0
 40
1.0
 40
1.0
 40
1.0
 10
456.378506877
 20
371.7327033562
 30
0.0
 10
456.379861532
 20
371.7325773151
 30
0.0
 10
456.3811609664
 20
371.7321834528
 30
0.0
 10
456.3839014903
 20
371.732147724
 30
0.0
 10
456.3839184557
 20
371.7316606702
 30
0.0
  0
SPLINE
  5
4BB
100
AcDbEntity
  8
10_ALL_FEATURES
100
AcDbSpline
 62
9
  6
CONTINUOUS
 70
0
 71
3
 72
10
 73
6
 74
0
 42
0.0000001
 43
0.0000001
 44
0.0000000001
 40
0.0
 40
0.0
 40
0.0
 40
0.0
 40
0.5132502665
 40
0.7646521084
 40
1.0
 40
1.0
 40
1.0
 40
1.0
 10
374.3554214025
 20
317.8709656416
 30
0.0
 10
374.471137141
 20
318.1412792084
 30
0.0
 10
374.6524359148
 20
318.5405790874
 30
0.0
 10
374.9189605336
 20
319.0476094202
 30
0.0
 10
375.0627046846
 20
319.2873931468
 30
0.0
 10
375.1415641762
 20
319.396756766
 30
0.0
  0
SPLINE
  5
4BC
100
AcDbEntity
  8
10_ALL_FEATURES
100
AcDbSpline
 62
9
  6
CONTINUOUS
 70
0
 71
3
 72
15
 73
11
 74
0
 42
0.0000001
 43
0.0000001
 44
0.0000000001
 40
0.0
 40
0.0
 40
0.0
 40
0.0
 40
0.1927596691
 40
0.3669282995
 40
0.513735669
 40
0.6238185038
 40
0.6988267215
 40
0.7715245923
 40
0.8715839917
 40
1.0
 40
1.0
 40
1.0
 40
1.0
 10
375.1415641762
 20
319.396756766
 30
0.0
 10
375.1574816557
 20
319.4188313841
 30
0.0
 10
375.1886753759
 20
319.4602182041
 30
0.0
 10
375.2356417958
 20
319.5155806882
 30
0.0
 10
375.280069694
 20
319.5574866704
 30
0.0
 10
375.3185300733
 20
319.5844418559
 30
0.0
 10
375.3589103462
 20
319.5889088252
 30
0.0
 10
375.3831337962
 20
319.5584145081
 30
0.0
 10
375.3908969621
 20
319.5165476642
 30
0.0
 10
375.3921301726
 20
319.4841659554
 30
0.0
 10
375.3918124406
 20
319.4660381909
 30
0.0
  0
SPLINE
  5
4BD
100
AcDbEntity
  8
10_ALL_FEATURES
100
AcDbSpline
 62
7
  6
CONTINUOUS
 70
0
 71
3
 72
11
 73
7
 74
0
 42
0.0000001
 43
0.0000001
 44
0.0000000001
 40
0.0
 40
0.0
 40
0.0
 40
0.0
 40
0.1843116215
 40
0.4162697209
 40
0.6905771226
 40
1.0
 40
1.0
 40
1.0
 40
1.0
 10
401.8551771046
 20
348.6063168073
 30
0.0
 10
401.8536233238
 20
348.6955697
 30
0.0
 10
401.9037725211
 20
348.8964155637
 30
0.0
 10
402.0588778537
 20
349.1933903893
 30
0.0
 10
402.2904424185
 20
349.5150259142
 30
0.0
 10
402.4787022502
 20
349.726422487
 30
0.0
 10
402.5826456654
 20
349.8343761825
 30
0.0
  0
SPLINE
  5
4BE
100
AcDbEntity
  8
10_ALL_FEATURES
100
AcDbSpline
 62
9
  6
CONTINUOUS
 70
0
 71
3
 72
9
 73
5
 74
0
 42
0.0000001
 43
0.0000001
 44
0.0000000001
 40
0.0
 40
0.0
 40
0.0
 40
0.0
 40
0.3728285284
 40
1.0
 40
1.0
 40
1.0
 40
1.0
 10
374.3554214025
 20
317.8709656416
 30
0.0
 10
374.4112650501
 20
317.8507730221
 30
0.0
 10
374.5582221967
 20
317.7891226962
 30
0.0
 10
374.7052049196
 20
317.727865975
 30
0.0
 10
374.7970691199
 20
317.6886291053
 30
0.0
  0
SPLINE
  5
4BF
100
AcDbEntity
  8
10_ALL_FEATURES
100
AcDbSpline
 62
9
  6
CONTINUOUS
 70
0
 71
3
 72
9
 73
5
 74
0
 42
0.0000001
 43
0.0000001
 44
0.0000000001
 40
0.0
 40
0.0
 40
0.0
 40
0.0
 40
0.2582836445
 40
1.0
 40
1.0
 40
1.0
 40
1.0
 10
375.3918124406
 20
319.4660381909
 30
0.0
 10
375.3812968115
 20
319.4514676213
 30
0.0
 10
375.3444337383
 20
319.3924013401
 30
0.0
 10
375.3255024735
 20
319.3219389388
 30
0.0
 10
375.3246019049
 20
319.2703453971
 30
0.0
  0
SPLINE
  5
4C0
100
AcDbEntity
  8
10_ALL_FEATURES
100
AcDbSpline
 62
9
  6
CONTINUOUS
 70
0
 71
3
 72
9
 73
5
 74
0
 42
0.0000001
 43
0.0000001
 44
0.0000000001
 40
0.0
 40
0.0
 40
0.0
 40
0.0
 40
0.5202329181
 40
1.0
 40
1.0
 40
1.0
 40
1.0
 10
375.1565088976
 20
306.0584348376
 30
0.0
 10
375.1369135025
 20
306.0367529988
 30
0.0
 10
375.1046289967
 20
305.989376738
 30
0.0
 10
375.0917972086
 20
305.9329732787
 30
0.0
 10
375.0913268407
 20
305.9060259226
 30
0.0
  0
SPLINE
  5
4C1
100
AcDbEntity
  8
10_ALL_FEATURES
100
AcDbSpline
 62
9
  6
CONTINUOUS
 70
0
 71
3
 72
10
 73
6
 74
0
 42
0.0000001
 43
0.0000001
 44
0.0000000001
 40
0.0
 40
0.0
 40
0.0
 40
0.0
 40
0.5067945678
 40
0.7551175421
 40
1.0
 40
1.0
 40
1.0
 40
1.0
 10
374.1479668746
 20
305.0661065861
 30
0.0
 10
374.1766318389
 20
305.1630965107
 30
0.0
 10
374.2660870193
 20
305.2998442147
 30
0.0
 10
374.4432784732
 20
305.3975385202
 30
0.0
 10
374.5425336514
 20
305.4147521258
 30
0.0
 10
374.5914029931
 20
305.4147521258
 30
0.0
  0
SPLINE
  5
4C2
100
AcDbEntity
  8
10_ALL_FEATURES
100
AcDbSpline
 62
7
  6
CONTINUOUS
 70
0
 71
3
 72
9
 73
5
 74
0
 42
0.0000001
 43
0.0000001
 44
0.0000000001
 40
0.0
 40
0.0
 40
0.0
 40
0.0
 40
0.6469080442
 40
1.0
 40
1.0
 40
1.0
 40
1.0
 10
372.2884449053
 20
312.5319856313
 30
0.0
 10
372.2884449053
 20
312.5200496138
 30
0.0
 10
372.287554702
 20
312.5032977765
 30
0.0
 10
372.297564676
 20
312.481681987
 30
0.0
 10
372.3040505005
 20
312.4810676493
 30
0.0
  0
SPLINE
  5
4C3
100
AcDbEntity
  8
10_ALL_FEATURES
100
AcDbSpline
 62
7
  6
CONTINUOUS
 70
0
 71
3
 72
9
 73
5
 74
0
 42
0.0000001
 43
0.0000001
 44
0.0000000001
 40
0.0
 40
0.0
 40
0.0
 40
0.0
 40
0.6317106307
 40
1.0
 40
1.0
 40
1.0
 40
1.0
 10
372.7884449053
 20
312.4085731369
 30
0.0
 10
372.6866562337
 20
312.4252142165
 30
0.0
 10
372.5253055786
 20
312.4497776562
 30
0.0
 10
372.3639135137
 20
312.4753974077
 30
0.0
 10
372.3040505005
 20
312.4810676493
 30
0.0
  0
SPLINE
  5
4C4
100
AcDbEntity
  8
10_ALL_FEATURES
100
AcDbSpline
 62
9
  6
CONTINUOUS
 70
0
 71
3
 72
18
 73
14
 74
0
 42
0.0000001
 43
0.0000001
 44
0.0000000001
 40
0.0
 40
0.0
 40
0.0
 40
0.0
 40
0.194911808
 40
0.3824856832
 40
0.5552377999
 40
0.7067127241
 40
0.8310257497
 40
0.8814700241
 40
0.9234226495
 40
0.9565129898
 40
0.9803969512
 40
0.9948834851
 40
1.0
 40
1.0
 40
1.0
 40
1.0
 10
372.7884449053
 20
307.3798419976
 30
0.0
 10
372.7559402959
 20
307.3798419976
 30
0.0
 10
372.6921543115
 20
307.3797343386
 30
0.0
 10
372.5995625258
 20
307.3792536454
 30
0.0
 10
372.5142091331
 20
307.3784789549
 30
0.0
 10
372.439432593
 20
307.3774314162
 30
0.0
 10
372.3849955557
 20
307.3763471235
 30
0.0
 10
372.3489388095
 20
307.3752874413
 30
0.0
 10
372.3278764689
 20
307.3745951866
 30
0.0
 10
372.3117875726
 20
307.3736625896
 30
0.0
 10
372.2989963244
 20
307.3732577306
 30
0.0
 10
372.2933812993
 20
307.3718766523
 30
0.0
 10
372.2884449053
 20
307.3719677249
 30
0.0
 10
372.2884449053
 20
307.3711144656
 30
0.0
  0
SPLINE
  5
4C5
100
AcDbEntity
  8
10_ALL_FEATURES
100
AcDbSpline
 62
7
  6
CONTINUOUS
 70
0
 71
3
 72
9
 73
5
 74
0
 42
0.0000001
 43
0.0000001
 44
0.0000000001
 40
0.0
 40
0.0
 40
0.0
 40
0.0
 40
0.2771062837
 40
1.0
 40
1.0
 40
1.0
 40
1.0
 10
372.2884449051
 20
314.5071331789
 30
0.0
 10
372.2884449051
 20
314.5005407029
 30
0.0
 10
372.2890320428
 20
314.4767478178
 30
0.0
 10
372.2917586722
 20
314.4530516545
 30
0.0
 10
372.2944105078
 20
314.436059386
 30
0.0
  0
SPLINE
  5
4C6
100
AcDbEntity
  8
10_ALL_FEATURES
100
AcDbSpline
 62
7
  6
CONTINUOUS
 70
0
 71
3
 72
11
 73
7
 74
0
 42
0.0000001
 43
0.0000001
 44
0.0000000001
 40
0.0
 40
0.0
 40
0.0
 40
0.0
 40
0.190948914
 40
0.4256849895
 40
0.6976930282
 40
1.0
 40
1.0
 40
1.0
 40
1.0
 10
397.9560655262
 20
344.289003734
 30
0.0
 10
397.954284793
 20
344.3912284293
 30
0.0
 10
398.0052845392
 20
344.618633866
 30
0.0
 10
398.1643349421
 20
344.9573538243
 30
0.0
 10
398.4007878541
 20
345.3218221446
 30
0.0
 10
398.5934856391
 20
345.561965545
 30
0.0
 10
398.699640137
 20
345.6841599303
 30
0.0
  0
SPLINE
  5
4C7
100
AcDbEntity
  8
10_ALL_FEATURES
100
AcDbSpline
 62
7
  6
CONTINUOUS
 70
0
 71
3
 72
11
 73
7
 74
0
 42
0.0000001
 43
0.0000001
 44
0.0000000001
 40
0.0
 40
0.0
 40
0.0
 40
0.0
 40
0.1976790877
 40
0.4350392974
 40
0.7046656187
 40
1.0
 40
1.0
 40
1.0
 40
1.0
 10
394.0659059147
 20
339.4692254369
 30
0.0
 10
394.0638768416
 20
339.585740238
 30
0.0
 10
394.1150283289
 20
339.8419075044
 30
0.0
 10
394.2758248169
 20
340.2256478795
 30
0.0
 10
394.513800871
 20
340.6357986365
 30
0.0
 10
394.7082268229
 20
340.9067094675
 30
0.0
 10
394.8151273554
 20
341.0441259471
 30
0.0
  0
SPLINE
  5
4C8
100
AcDbEntity
  8
10_ALL_FEATURES
100
AcDbSpline
 62
7
  6
CONTINUOUS
 70
0
 71
3
 72
9
 73
5
 74
0
 42
0.0000001
 43
0.0000001
 44
0.0000000001
 40
0.0
 40
0.0
 40
0.0
 40
0.0
 40
0.2416268866
 40
1.0
 40
1.0
 40
1.0
 40
1.0
 10
398.8411747247
 20
345.77904331
 30
0.0
 10
399.1513498708
 20
345.803842565
 30
0.0
 10
400.4350478905
 20
345.9064351492
 30
0.0
 10
401.7187597352
 20
346.0088547502
 30
0.0
 10
402.6923001479
 20
346.0864282732
 30
0.0
  0
SPLINE
  5
4C9
100
AcDbEntity
  8
10_ALL_FEATURES
100
AcDbSpline
 62
7
  6
CONTINUOUS
 70
0
 71
3
 72
9
 73
5
 74
0
 42
0.0000001
 43
0.0000001
 44
0.0000000001
 40
0.0
 40
0.0
 40
0.0
 40
0.0
 40
0.225229149
 40
1.0
 40
1.0
 40
1.0
 40
1.0
 10
402.6923001479
 20
346.0864282732
 30
0.0
 10
404.2265221518
 20
346.2086779553
 30
0.0
 10
411.0384358862
 20
346.7503682057
 30
0.0
 10
417.8507294843
 20
347.287282634
 30
0.0
 10
423.1289108528
 20
347.7005152615
 30
0.0
  0
LINE
  5
4CA
100
AcDbEntity
  8
10_ALL_FEATURES
100
AcDbLine
 62
9
  6
CONTINUOUS
 10
402.5780331236
 20
348.2956137106
 11
402.5826456654
 21
349.8343761825
  0
LINE
  5
4CB
100
AcDbEntity
  8
10_ALL_FEATURES
100
AcDbLine
 62
9
  6
CONTINUOUS
 10
398.6942594331
 20
343.9375425945
 11
398.699640137
 21
345.6841599303
  0
SPLINE
  5
4CC
100
AcDbEntity
  8
10_ALL_FEATURES
100
AcDbSpline
 62
7
  6
CONTINUOUS
 70
0
 71
3
 72
9
 73
5
 74
0
 42
0.0000001
 43
0.0000001
 44
0.0000000001
 40
0.0
 40
0.0
 40
0.0
 40
0.0
 40
0.2420391033
 40
1.0
 40
1.0
 40
1.0
 40
1.0
 10
394.9563910141
 20
341.1497160976
 30
0.0
 10
395.2691113721
 20
341.176092618
 30
0.0
 10
396.5611396955
 20
341.2850189752
 30
0.0
 10
397.8531853427
 20
341.3937398515
 30
0.0
 10
398.8325152561
 20
341.4760288924
 30
0.0
  0
SPLINE
  5
4CD
100
AcDbEntity
  8
10_ALL_FEATURES
100
AcDbSpline
 62
7
  6
CONTINUOUS
 70
0
 71
3
 72
9
 73
5
 74
0
 42
0.0000001
 43
0.0000001
 44
0.0000000001
 40
0.0
 40
0.0
 40
0.0
 40
0.0
 40
0.2247927443
 40
1.0
 40
1.0
 40
1.0
 40
1.0
 10
398.8325152561
 20
341.4760288924
 30
0.0
 10
400.4847567999
 20
341.6148599135
 30
0.0
 10
407.8349474553
 20
342.2309729224
 30
0.0
 10
415.1856830679
 20
342.8405861194
 30
0.0
 10
420.8843316831
 20
343.3094410435
 30
0.0
  0
LINE
  5
4CE
100
AcDbEntity
  8
10_ALL_FEATURES
100
AcDbLine
 62
9
  6
CONTINUOUS
 10
394.8089858404
 20
339.0714791248
 11
394.8151273554
 21
341.0441259471
  0
LINE
  5
4CF
100
AcDbEntity
  8
10_ALL_FEATURES
100
AcDbLine
 62
9
  6
CONTINUOUS
 10
394.9513224774
 20
339.0833696687
 11
394.9563910141
 21
341.1497160976
  0
LINE
  5
4D0
100
AcDbEntity
  8
10_ALL_FEATURES
100
AcDbLine
 62
9
  6
CONTINUOUS
 10
398.836747623
 20
343.9488250564
 11
398.8411747247
 21
345.77904331
  0
LINE
  5
4D1
100
AcDbEntity
  8
10_ALL_FEATURES
100
AcDbLine
 62
9
  6
CONTINUOUS
 10
402.7210241179
 20
348.3064316957
 11
402.7247869765
 21
349.9203695818
  0
SPLINE
  5
4D2
100
AcDbEntity
  8
10_ALL_FEATURES
100
AcDbSpline
 62
7
  6
CONTINUOUS
 70
0
 71
3
 72
9
 73
5
 74
0
 42
0.0000001
 43
0.0000001
 44
0.0000000001
 40
0.0
 40
0.0
 40
0.0
 40
0.0
 40
0.4098224353
 40
1.0
 40
1.0
 40
1.0
 40
1.0
 10
424.1975698447
 20
368.20968345
 30
0.0
 10
424.1990963903
 20
368.2097806983
 30
0.0
 10
424.202263753
 20
368.2099597474
 30
0.0
 10
424.20820402
 20
368.2091052868
 30
0.0
 10
424.2081205862
 20
368.2069040617
 30
0.0
  0
SPLINE
  5
4D3
100
AcDbEntity
  8
10_ALL_FEATURES
100
AcDbSpline
 62
7
  6
CONTINUOUS
 70
0
 71
3
 72
9
 73
5
 74
0
 42
0.0000001
 43
0.0000001
 44
0.0000000001
 40
0.0
 40
0.0
 40
0.0
 40
0.0
 40
0.4842001453
 40
1.0
 40
1.0
 40
1.0
 40
1.0
 10
507.4313305404
 20
323.9806940984
 30
0.0
 10
507.5475274303
 20
323.9689678812
 30
0.0
 10
507.7746974114
 20
323.8574892084
 30
0.0
 10
507.9529439744
 20
323.6952994909
 30
0.0
 10
508.0376746402
 20
323.6042046887
 30
0.0
  0
SPLINE
  5
4D4
100
AcDbEntity
  8
10_ALL_FEATURES
100
AcDbSpline
 62
7
  6
CONTINUOUS
 70
0
 71
3
 72
10
 73
6
 74
0
 42
0.0000001
 43
0.0000001
 44
0.0000000001
 40
0.0
 40
0.0
 40
0.0
 40
0.0
 40
0.2339165791
 40
0.4863758981
 40
1.0
 40
1.0
 40
1.0
 40
1.0
 10
509.5992383792
 20
317.9154828869
 30
0.0
 10
509.6591769474
 20
317.9088824834
 30
0.0
 10
509.7805902558
 20
317.8673945638
 30
0.0
 10
509.9973209614
 20
317.7260443978
 30
0.0
 10
510.1360088415
 20
317.5819230338
 30
0.0
 10
510.2199564299
 20
317.4795307143
 30
0.0
  0
SPLINE
  5
4D5
100
AcDbEntity
  8
10_ALL_FEATURES
100
AcDbSpline
 62
7
  6
CONTINUOUS
 70
0
 71
3
 72
10
 73
6
 74
0
 42
0.0000001
 43
0.0000001
 44
0.0000000001
 40
0.0
 40
0.0
 40
0.0
 40
0.0
 40
0.2340563147
 40
0.4868102214
 40
1.0
 40
1.0
 40
1.0
 40
1.0
 10
511.7590561254
 20
310.9637467221
 30
0.0
 10
511.8249969116
 20
310.9556363803
 30
0.0
 10
511.9569057332
 20
310.9015117752
 30
0.0
 10
512.182014291
 20
310.7272371815
 30
0.0
 10
512.3217096893
 20
310.5571247345
 30
0.0
 10
512.4057401471
 20
310.4381338861
 30
0.0
  0
SPLINE
  5
4D6
100
AcDbEntity
  8
10_ALL_FEATURES
100
AcDbSpline
 62
7
  6
CONTINUOUS
 70
0
 71
3
 72
21
 73
17
 74
0
 42
0.0000001
 43
0.0000001
 44
0.0000000001
 40
0.0
 40
0.0
 40
0.0
 40
0.0
 40
0.1459127455
 40
0.2915606607
 40
0.43644974
 40
0.5795532678
 40
0.649795145
 40
0.7185039525
 40
0.7847818238
 40
0.8471242837
 40
0.9030745971
 40
0.9490915902
 40
0.9671960044
 40
0.9816159464
 40
0.9923873706
 40
1.0
 40
1.0
 40
1.0
 40
1.0
 10
78.4566045202
 20
77.0541456655
 30
0.0
 10
78.8667624218
 20
76.2636078499
 30
0.0
 10
79.7059495115
 20
74.6940514196
 30
0.0
 10
81.0216261057
 20
72.3773297378
 30
0.0
 10
82.3897688204
 20
70.1111730492
 30
0.0
 10
83.5732179985
 20
68.2721152927
 30
0.0
 10
84.5405371757
 20
66.8479104477
 30
0.0
 10
85.2634157999
 20
65.8247746957
 30
0.0
 10
85.9794656597
 20
64.8561919947
 30
0.0
 10
86.6730589652
 20
63.9681517274
 30
0.0
 10
87.3188695227
 20
63.2007371557
 30
0.0
 10
87.8206320095
 20
62.6651376853
 30
0.0
 10
88.176976535
 20
62.3441013717
 30
0.0
 10
88.3881354118
 20
62.1840631726
 30
0.0
 10
88.5625070534
 20
62.0849886474
 30
0.0
 10
88.6736018016
 20
62.0541456655
 30
0.0
 10
88.7200669373
 20
62.0541456655
 30
0.0
  0
SPLINE
  5
4D7
100
AcDbEntity
  8
10_ALL_FEATURES
100
AcDbSpline
 62
7
  6
CONTINUOUS
 70
0
 71
3
 72
21
 73
17
 74
0
 42
0.0000001
 43
0.0000001
 44
0.0000000001
 40
0.0
 40
0.0
 40
0.0
 40
0.0
 40
0.0076125228
 40
0.0183839735
 40
0.0328039514
 40
0.0509082667
 40
0.0969258249
 40
0.1528758399
 40
0.2152168554
 40
0.2814936535
 40
0.3502021658
 40
0.4204441829
 40
0.5635472748
 40
0.7084384144
 40
0.854087128
 40
1.0
 40
1.0
 40
1.0
 40
1.0
 10
284.4764838843
 20
62.0541456655
 30
0.0
 10
284.5229483688
 20
62.0541456655
 30
0.0
 10
284.6340426908
 20
62.0849881404
 30
0.0
 10
284.808414034
 20
62.184062873
 30
0.0
 10
285.0195719355
 20
62.3441018706
 30
0.0
 10
285.3759204432
 20
62.6651382796
 30
0.0
 10
285.8776825318
 20
63.2007397509
 30
0.0
 10
286.5234892669
 20
63.9681479844
 30
0.0
 10
287.2170720536
 20
64.8561746848
 30
0.0
 10
287.9331123542
 20
65.8247430569
 30
0.0
 10
288.6559871157
 20
66.8478723557
 30
0.0
 10
289.6233036393
 20
68.2720745827
 30
0.0
 10
290.8067648953
 20
70.1111373537
 30
0.0
 10
292.1749109874
 20
72.3773093195
 30
0.0
 10
293.4905979501
 20
74.6940459533
 30
0.0
 10
294.3297880496
 20
76.2636071749
 30
0.0
 10
294.7399463014
 20
77.0541456655
 30
0.0
  0
SPLINE
  5
4D8
100
AcDbEntity
  8
10_ALL_FEATURES
100
AcDbSpline
 62
7
  6
CONTINUOUS
 70
0
 71
3
 72
13
 73
9
 74
0
 42
0.0000001
 43
0.0000001
 44
0.0000000001
 40
0.0
 40
0.0
 40
0.0
 40
0.0
 40
0.1375742803
 40
0.279067449
 40
0.5451185489
 40
0.7774328564
 40
0.8856504107
 40
1.0
 40
1.0
 40
1.0
 40
1.0
 10
143.8577296931
 20
210.6808588159
 30
0.0
 10
143.7870045907
 20
210.6808588159
 30
0.0
 10
143.6438730804
 20
210.6672335194
 30
0.0
 10
143.3650077093
 20
210.641543089
 30
0.0
 10
143.0359112718
 20
210.6246087678
 30
0.0
 10
142.7241007877
 20
210.6440906862
 30
0.0
 10
142.4919240279
 20
210.6708843
 30
0.0
 10
142.3776785865
 20
210.6808573954
 30
0.0
 10
142.318892988
 20
210.68085963
 30
0.0
  0
SPLINE
  5
4D9
100
AcDbEntity
  8
10_ALL_FEATURES
100
AcDbSpline
 62
7
  6
CONTINUOUS
 70
0
 71
3
 72
13
 73
9
 74
0
 42
0.0000001
 43
0.0000001
 44
0.0000000001
 40
0.0
 40
0.0
 40
0.0
 40
0.0
 40
0.1143511438
 40
0.2225693546
 40
0.454882313
 40
0.7209367633
 40
0.86243057
 40
1.0
 40
1.0
 40
1.0
 40
1.0
 10
230.8777371843
 20
210.6808616441
 30
0.0
 10
230.8189456344
 20
210.6808605224
 30
0.0
 10
230.7046887209
 20
210.67089021
 30
0.0
 10
230.4724911328
 20
210.6440944219
 30
0.0
 10
230.1606521881
 20
210.6246070851
 30
0.0
 10
229.8315254235
 20
210.6415445716
 30
0.0
 10
229.5526364089
 20
210.6672420899
 30
0.0
 10
229.40949388
 20
210.6808583689
 30
0.0
 10
229.3387650728
 20
210.6808583689
 30
0.0
  0
SPLINE
  5
4DA
100
AcDbEntity
  8
10_ALL_FEATURES
100
AcDbSpline
 62
7
  6
CONTINUOUS
 70
0
 71
3
 72
14
 73
10
 74
0
 42
0.0000001
 43
0.0000001
 44
0.0000000001
 40
0.0
 40
0.0
 40
0.0
 40
0.0
 40
0.1048077901
 40
0.2020450828
 40
0.3092309126
 40
0.4306096571
 40
0.7096413691
 40
0.8584912314
 40
1.0
 40
1.0
 40
1.0
 40
1.0
 10
242.6826590991
 20
210.6808584554
 30
0.0
 10
242.6377105311
 20
210.6808584554
 30
0.0
 10
242.5514775995
 20
210.6683303899
 30
0.0
 10
242.4209470898
 20
210.6457088265
 30
0.0
 10
242.2815664236
 20
210.6330392799
 30
0.0
 10
242.0637688279
 20
210.6296146285
 30
0.0
 10
241.8284802429
 20
210.6468809726
 30
0.0
 10
241.585532742
 20
210.6697354179
 30
0.0
 10
241.461251715
 20
210.6808587785
 30
0.0
 10
241.4005633204
 20
210.6808600144
 30
0.0
  0
SPLINE
  5
4DB
100
AcDbEntity
  8
10_ALL_FEATURES
100
AcDbSpline
 62
7
  6
CONTINUOUS
 70
0
 71
3
 72
17
 73
13
 74
0
 42
0.0000001
 43
0.0000001
 44
0.0000000001
 40
0.0
 40
0.0
 40
0.0
 40
0.0
 40
0.1785861442
 40
0.3515719052
 40
0.5134754525
 40
0.6591402786
 40
0.7839839143
 40
0.8841637099
 40
0.9240495691
 40
0.9567450769
 40
0.9820748407
 40
1.0
 40
1.0
 40
1.0
 40
1.0
 10
267.0176791692
 20
207.4372898396
 30
0.0
 10
266.6093920835
 20
207.6758320938
 30
0.0
 10
265.7985692289
 20
208.1334838168
 30
0.0
 10
264.5951455688
 20
208.7665576988
 30
0.0
 10
263.4517727398
 20
209.3253360825
 30
0.0
 10
262.4081101974
 20
209.7966651158
 30
0.0
 10
261.5006868703
 20
210.1711530668
 30
0.0
 10
260.8424224449
 20
210.4143681742
 30
0.0
 10
260.4066999185
 20
210.5537625962
 30
0.0
 10
260.1568137671
 20
210.6234439566
 30
0.0
 10
259.9603926808
 20
210.6663629699
 30
0.0
 10
259.8461730992
 20
210.6808588157
 30
0.0
 10
259.798710459
 20
210.6808588157
 30
0.0
  0
SPLINE
  5
4DC
100
AcDbEntity
  8
10_ALL_FEATURES
100
AcDbSpline
 62
7
  6
CONTINUOUS
 70
0
 71
3
 72
17
 73
13
 74
0
 42
0.0000001
 43
0.0000001
 44
0.0000000001
 40
0.0
 40
0.0
 40
0.0
 40
0.0
 40
0.017924772
 40
0.0432537257
 40
0.0759483813
 40
0.1158331659
 40
0.2160113943
 40
0.3408542181
 40
0.4865196185
 40
0.6484250311
 40
0.8214127977
 40
1.0
 40
1.0
 40
1.0
 40
1.0
 10
113.3978403626
 20
210.6808588157
 30
0.0
 10
113.3503787478
 20
210.6808588157
 30
0.0
 10
113.2361622829
 20
210.6663638625
 30
0.0
 10
113.0397464588
 20
210.6234460748
 30
0.0
 10
112.789867096
 20
210.5537674296
 30
0.0
 10
112.3541530931
 20
210.4143766862
 30
0.0
 10
111.6958968436
 20
210.1711658602
 30
0.0
 10
110.7884773323
 20
209.7966811784
 30
0.0
 10
109.7448103374
 20
209.325351506
 30
0.0
 10
108.6014267161
 20
208.7665683884
 30
0.0
 10
107.3979911
 20
208.1334891917
 30
0.0
 10
106.5871611576
 20
207.6758335074
 30
0.0
 10
106.1788716523
 20
207.4372898396
 30
0.0
  0
SPLINE
  5
4DD
100
AcDbEntity
  8
10_ALL_FEATURES
100
AcDbSpline
 62
7
  6
CONTINUOUS
 70
0
 71
3
 72
14
 73
10
 74
0
 42
0.0000001
 43
0.0000001
 44
0.0000000001
 40
0.0
 40
0.0
 40
0.0
 40
0.0
 40
0.1415072263
 40
0.2903569055
 40
0.5693941294
 40
0.690777893
 40
0.7979690235
 40
0.8952098549
 40
1.0
 40
1.0
 40
1.0
 40
1.0
 10
131.7959882062
 20
210.6808599888
 30
0.0
 10
131.7353045442
 20
210.6808593999
 30
0.0
 10
131.6110325943
 20
210.6697360309
 30
0.0
 10
131.3680996738
 20
210.6468842082
 30
0.0
 10
131.1328227305
 20
210.6296169891
 30
0.0
 10
130.9150328468
 20
210.6330364452
 30
0.0
 10
130.7756554623
 20
210.6457037583
 30
0.0
 10
130.6451360155
 20
210.6683118036
 30
0.0
 10
130.5589170486
 20
210.6808586163
 30
0.0
 10
130.5139790627
 20
210.6808586163
 30
0.0
  0
SPLINE
  5
4DE
100
AcDbEntity
  8
10_ALL_FEATURES
100
AcDbSpline
 62
7
  6
CONTINUOUS
 70
0
 71
3
 72
9
 73
5
 74
0
 42
0.0000001
 43
0.0000001
 44
0.0000000001
 40
0.0
 40
0.0
 40
0.0
 40
0.0
 40
0.2744132841
 40
1.0
 40
1.0
 40
1.0
 40
1.0
 10
70.6847174402
 20
103.0530034317
 30
0.0
 10
70.690597664
 20
102.971488639
 30
0.0
 10
70.709657059
 20
102.6742903835
 30
0.0
 10
70.7195252015
 20
102.376363733
 30
0.0
 10
70.7179615624
 20
102.1602729234
 30
0.0
  0
SPLINE
  5
4DF
100
AcDbEntity
  8
10_ALL_FEATURES
100
AcDbSpline
 62
7
  6
CONTINUOUS
 70
0
 71
3
 72
9
 73
5
 74
0
 42
0.0000001
 43
0.0000001
 44
0.0000000001
 40
0.0
 40
0.0
 40
0.0
 40
0.0
 40
0.2625550229
 40
1.0
 40
1.0
 40
1.0
 40
1.0
 10
70.7256173756
 20
104.3646828577
 30
0.0
 10
70.7255711599
 20
104.2498200124
 30
0.0
 10
70.7221332293
 20
103.8123555693
 30
0.0
 10
70.7059679896
 20
103.3749210183
 30
0.0
 10
70.6847174402
 20
103.0530034317
 30
0.0
  0
SPLINE
  5
4E0
100
AcDbEntity
  8
10_ALL_FEATURES
100
AcDbSpline
 62
7
  6
CONTINUOUS
 70
0
 71
3
 72
9
 73
5
 74
0
 42
0.0000001
 43
0.0000001
 44
0.0000000001
 40
0.0
 40
0.0
 40
0.0
 40
0.0
 40
0.2355228102
 40
1.0
 40
1.0
 40
1.0
 40
1.0
 10
70.6847165526
 20
148.7899210206
 30
0.0
 10
70.691503679
 20
148.6871064997
 30
0.0
 10
70.7161371441
 20
148.2502968083
 30
0.0
 10
70.7254828657
 20
147.8126777046
 30
0.0
 10
70.725617453
 20
147.4782284772
 30
0.0
  0
SPLINE
  5
4E1
100
AcDbEntity
  8
10_ALL_FEATURES
100
AcDbSpline
 62
7
  6
CONTINUOUS
 70
0
 71
3
 72
9
 73
5
 74
0
 42
0.0000001
 43
0.0000001
 44
0.0000000001
 40
0.0
 40
0.0
 40
0.0
 40
0.0
 40
0.2242705811
 40
1.0
 40
1.0
 40
1.0
 40
1.0
 10
70.7179595302
 20
149.6826511996
 30
0.0
 10
70.7184429652
 20
149.6158589849
 30
0.0
 10
70.7166302607
 20
149.3180116803
 30
0.0
 10
70.7013391928
 20
149.020355868
 30
0.0
 10
70.6847165526
 20
148.7899210206
 30
0.0
  0
SPLINE
  5
4E2
100
AcDbEntity
  8
10_ALL_FEATURES
100
AcDbSpline
 62
7
  6
CONTINUOUS
 70
0
 71
3
 72
9
 73
5
 74
0
 42
0.0000001
 43
0.0000001
 44
0.0000000001
 40
0.0
 40
0.0
 40
0.0
 40
0.0
 40
0.2744132841
 40
1.0
 40
1.0
 40
1.0
 40
1.0
 10
302.5118333813
 20
148.7899210206
 30
0.0
 10
302.5059531575
 20
148.8714358132
 30
0.0
 10
302.4868937625
 20
149.1686340682
 30
0.0
 10
302.47702562
 20
149.4665607183
 30
0.0
 10
302.4785892591
 20
149.6826515276
 30
0.0
  0
SPLINE
  5
4E3
100
AcDbEntity
  8
10_ALL_FEATURES
100
AcDbSpline
 62
7
  6
CONTINUOUS
 70
0
 71
3
 72
9
 73
5
 74
0
 42
0.0000001
 43
0.0000001
 44
0.0000000001
 40
0.0
 40
0.0
 40
0.0
 40
0.0
 40
0.2625550229
 40
1.0
 40
1.0
 40
1.0
 40
1.0
 10
302.470933446
 20
147.4782415956
 30
0.0
 10
302.4709796616
 20
147.5931044408
 30
0.0
 10
302.4744175923
 20
148.0305688835
 30
0.0
 10
302.490582832
 20
148.4680034342
 30
0.0
 10
302.5118333813
 20
148.7899210206
 30
0.0
  0
SPLINE
  5
4E4
100
AcDbEntity
  8
10_ALL_FEATURES
100
AcDbSpline
 62
7
  6
CONTINUOUS
 70
0
 71
3
 72
9
 73
5
 74
0
 42
0.0000001
 43
0.0000001
 44
0.0000000001
 40
0.0
 40
0.0
 40
0.0
 40
0.0
 40
0.2355228102
 40
1.0
 40
1.0
 40
1.0
 40
1.0
 10
302.511834269
 20
103.0530034317
 30
0.0
 10
302.5050471425
 20
103.1558179525
 30
0.0
 10
302.4804136775
 20
103.5926276436
 30
0.0
 10
302.4710679559
 20
104.0302467469
 30
0.0
 10
302.4709333685
 20
104.3646959741
 30
0.0
  0
SPLINE
  5
4E5
100
AcDbEntity
  8
10_ALL_FEATURES
100
AcDbSpline
 62
7
  6
CONTINUOUS
 70
0
 71
3
 72
9
 73
5
 74
0
 42
0.0000001
 43
0.0000001
 44
0.0000000001
 40
0.0
 40
0.0
 40
0.0
 40
0.0
 40
0.2242705812
 40
1.0
 40
1.0
 40
1.0
 40
1.0
 10
302.4785912913
 20
102.1602732541
 30
0.0
 10
302.4781078562
 20
102.2270654686
 30
0.0
 10
302.4799205608
 20
102.5249127729
 30
0.0
 10
302.4952116287
 20
102.8225685847
 30
0.0
 10
302.511834269
 20
103.0530034317
 30
0.0
  0
SPLINE
  5
4E6
100
AcDbEntity
  8
10_ALL_FEATURES
100
AcDbSpline
 62
7
  6
CONTINUOUS
 70
0
 71
3
 72
11
 73
7
 74
0
 42
0.0000001
 43
0.0000001
 44
0.0000000001
 40
0.0
 40
0.0
 40
0.0
 40
0.0
 40
0.2468382338
 40
0.4906741793
 40
0.7408764298
 40
1.0
 40
1.0
 40
1.0
 40
1.0
 10
170.0678026077
 20
159.0116567186
 30
0.0
 10
170.0610886082
 20
158.9934959132
 30
0.0
 10
170.0581043085
 20
158.9526186175
 30
0.0
 10
170.0876497434
 20
158.8988942878
 30
0.0
 10
170.1433620156
 20
158.8699685624
 30
0.0
 10
170.1860192401
 20
158.8765618167
 30
0.0
 10
170.2042139767
 20
158.8856221851
 30
0.0
  0
SPLINE
  5
4E7
100
AcDbEntity
  8
10_ALL_FEATURES
100
AcDbSpline
 62
7
  6
CONTINUOUS
 70
0
 71
3
 72
11
 73
7
 74
0
 42
0.0000001
 43
0.0000001
 44
0.0000000001
 40
0.0
 40
0.0
 40
0.0
 40
0.0
 40
0.2448192412
 40
0.4873034975
 40
0.7380569822
 40
1.0
 40
1.0
 40
1.0
 40
1.0
 10
172.4688294045
 20
165.4943168662
 30
0.0
 10
172.4624777219
 20
165.4771996825
 30
0.0
 10
172.4590074057
 20
165.4389240141
 30
0.0
 10
172.4842766509
 20
165.3870121239
 30
0.0
 10
172.5347004086
 20
165.3554502908
 30
0.0
 10
172.5757304967
 20
165.3572698079
 30
0.0
 10
172.5941367101
 20
165.3638131137
 30
0.0
  0
SPLINE
  5
4E8
100
AcDbEntity
  8
10_ALL_FEATURES
100
AcDbSpline
 62
7
  6
CONTINUOUS
 70
0
 71
3
 72
11
 73
7
 74
0
 42
0.0000001
 43
0.0000001
 44
0.0000000001
 40
0.0
 40
0.0
 40
0.0
 40
0.0
 40
0.242625952
 40
0.4836139339
 40
0.7348976098
 40
1.0
 40
1.0
 40
1.0
 40
1.0
 10
174.6803044636
 20
171.4433642403
 30
0.0
 10
174.674225806
 20
171.4270420708
 30
0.0
 10
174.6704237991
 20
171.3907128077
 30
0.0
 10
174.6926056457
 20
171.3402655717
 30
0.0
 10
174.7391518983
 20
171.3070173181
 30
0.0
 10
174.7788095323
 20
171.3056117245
 30
0.0
 10
174.7972265673
 20
171.3104060552
 30
0.0
  0
SPLINE
  5
4E9
100
AcDbEntity
  8
10_ALL_FEATURES
100
AcDbSpline
 62
7
  6
CONTINUOUS
 70
0
 71
3
 72
11
 73
7
 74
0
 42
0.0000001
 43
0.0000001
 44
0.0000000001
 40
0.0
 40
0.0
 40
0.0
 40
0.0
 40
0.2402375254
 40
0.479533355
 40
0.7312671896
 40
1.0
 40
1.0
 40
1.0
 40
1.0
 10
176.786352142
 20
177.088137133
 30
0.0
 10
176.7804935714
 20
177.0724639202
 30
0.0
 10
176.7764429547
 20
177.0377004964
 30
0.0
 10
176.79621667
 20
176.9884932471
 30
0.0
 10
176.8397314344
 20
176.9540243662
 30
0.0
 10
176.8782765649
 20
176.950244291
 30
0.0
 10
176.8966634894
 20
176.9537441657
 30
0.0
  0
SPLINE
  5
4EA
100
AcDbEntity
  8
10_ALL_FEATURES
100
AcDbSpline
 62
7
  6
CONTINUOUS
 70
0
 71
3
 72
11
 73
7
 74
0
 42
0.0000001
 43
0.0000001
 44
0.0000000001
 40
0.0
 40
0.0
 40
0.0
 40
0.0
 40
0.2688736433
 40
0.521173001
 40
0.7606799841
 40
1.0
 40
1.0
 40
1.0
 40
1.0
 10
196.1703276812
 20
176.9782347554
 30
0.0
 10
196.1882614377
 20
176.9748683438
 30
0.0
 10
196.225759829
 20
176.9783586946
 30
0.0
 10
196.2687671617
 20
177.0110556616
 30
0.0
 10
196.2895584397
 20
177.0582419872
 30
0.0
 10
196.287160609
 20
177.092123838
 30
0.0
 10
196.2822739624
 20
177.107612601
 30
0.0
  0
SPLINE
  5
4EB
100
AcDbEntity
  8
10_ALL_FEATURES
100
AcDbSpline
 62
7
  6
CONTINUOUS
 70
0
 71
3
 72
11
 73
7
 74
0
 42
0.0000001
 43
0.0000001
 44
0.0000000001
 40
0.0
 40
0.0
 40
0.0
 40
0.0
 40
0.2651146212
 40
0.5163921446
 40
0.7573729798
 40
1.0
 40
1.0
 40
1.0
 40
1.0
 10
198.3993242542
 20
171.3104060552
 30
0.0
 10
198.4177421335
 20
171.3056115047
 30
0.0
 10
198.457400525
 20
171.3070178158
 30
0.0
 10
198.5039456146
 20
171.3402669988
 30
0.0
 10
198.5261273093
 20
171.3907131568
 30
0.0
 10
198.5223250405
 20
171.4270420038
 30
0.0
 10
198.516246358
 20
171.4433642403
 30
0.0
  0
SPLINE
  5
4EC
100
AcDbEntity
  8
10_ALL_FEATURES
100
AcDbSpline
 62
7
  6
CONTINUOUS
 70
0
 71
3
 72
11
 73
7
 74
0
 42
0.0000001
 43
0.0000001
 44
0.0000000001
 40
0.0
 40
0.0
 40
0.0
 40
0.0
 40
0.2619503939
 40
0.5127005764
 40
0.7551805155
 40
1.0
 40
1.0
 40
1.0
 40
1.0
 10
200.6024141115
 20
165.3638131137
 30
0.0
 10
200.6208208347
 20
165.3572696267
 30
0.0
 10
200.6618514107
 20
165.355450666
 30
0.0
 10
200.7122746976
 20
165.3870129108
 30
0.0
 10
200.7375433111
 20
165.4389243438
 30
0.0
 10
200.7340731031
 20
165.4771996734
 30
0.0
 10
200.7277214171
 20
165.4943168662
 30
0.0
  0
SPLINE
  5
4ED
100
AcDbEntity
  8
10_ALL_FEATURES
100
AcDbSpline
 62
7
  6
CONTINUOUS
 70
0
 71
3
 72
11
 73
7
 74
0
 42
0.0000001
 43
0.0000001
 44
0.0000000001
 40
0.0
 40
0.0
 40
0.0
 40
0.0
 40
0.2591309623
 40
0.5093313534
 40
0.7531624145
 40
1.0
 40
1.0
 40
1.0
 40
1.0
 10
202.9923368449
 20
158.8856221851
 30
0.0
 10
203.0105320901
 20
158.8765615635
 30
0.0
 10
203.0531900252
 20
158.869968912
 30
0.0
 10
203.1089018875
 20
158.8988952187
 30
0.0
 10
203.1384464095
 20
158.952619193
 30
0.0
 10
203.135462192
 20
158.9934959713
 30
0.0
 10
203.1287482139
 20
159.0116567186
 30
0.0
  0
SPLINE
  5
4EE
100
AcDbEntity
  8
10_ALL_FEATURES
100
AcDbSpline
 62
7
  6
CONTINUOUS
 70
0
 71
3
 72
11
 73
7
 74
0
 42
0.0000001
 43
0.0000001
 44
0.0000000001
 40
0.0
 40
0.0
 40
0.0
 40
0.0
 40
0.2819427335
 40
0.5295355518
 40
0.7604210052
 40
1.0
 40
1.0
 40
1.0
 40
1.0
 10
248.8698684079
 20
157.7648113275
 30
0.0
 10
248.8799205222
 20
157.7450947436
 30
0.0
 10
248.9131627623
 20
157.7136026212
 30
0.0
 10
248.9764203906
 20
157.7085285892
 30
0.0
 10
249.0285226831
 20
157.7362058797
 30
0.0
 10
249.048824103
 20
157.7695631115
 30
0.0
 10
249.0540662791
 20
157.7876235197
 30
0.0
  0
SPLINE
  5
4EF
100
AcDbEntity
  8
10_ALL_FEATURES
100
AcDbSpline
 62
7
  6
CONTINUOUS
 70
0
 71
3
 72
11
 73
7
 74
0
 42
0.0000001
 43
0.0000001
 44
0.0000000001
 40
0.0
 40
0.0
 40
0.0
 40
0.0
 40
0.2879804997
 40
0.5338758666
 40
0.7617468302
 40
1.0
 40
1.0
 40
1.0
 40
1.0
 10
253.3286771659
 20
159.9931454776
 30
0.0
 10
253.3389328542
 20
159.9729961064
 30
0.0
 10
253.3729121347
 20
159.9413487297
 30
0.0
 10
253.436337686
 20
159.9374663179
 30
0.0
 10
253.4875918374
 20
159.9654685623
 30
0.0
 10
253.507582801
 20
159.9985413165
 30
0.0
 10
253.5128022255
 20
160.0165034954
 30
0.0
  0
SPLINE
  5
4F0
100
AcDbEntity
  8
10_ALL_FEATURES
100
AcDbSpline
 62
7
  6
CONTINUOUS
 70
0
 71
3
 72
11
 73
7
 74
0
 42
0.0000001
 43
0.0000001
 44
0.0000000001
 40
0.0
 40
0.0
 40
0.0
 40
0.0
 40
0.294705411
 40
0.5384300172
 40
0.7631120213
 40
1.0
 40
1.0
 40
1.0
 40
1.0
 10
257.7853691012
 20
162.2447257711
 30
0.0
 10
257.7958590997
 20
162.2240987834
 30
0.0
 10
257.8306809011
 20
162.1923174605
 30
0.0
 10
257.8942479724
 20
162.189797013
 30
0.0
 10
257.9445538644
 20
162.2181557254
 30
0.0
 10
257.9642104082
 20
162.2509325993
 30
0.0
 10
257.9693996145
 20
162.2687952677
 30
0.0
  0
SPLINE
  5
4F1
100
AcDbEntity
  8
10_ALL_FEATURES
100
AcDbSpline
 62
7
  6
CONTINUOUS
 70
0
 71
3
 72
9
 73
5
 74
0
 42
0.0000001
 43
0.0000001
 44
0.0000000001
 40
0.0
 40
0.0
 40
0.0
 40
0.0
 40
0.2321778033
 40
1.0
 40
1.0
 40
1.0
 40
1.0
 10
254.2798464085
 20
162.6600210303
 30
0.0
 10
254.2815313542
 20
162.6658365288
 30
0.0
 10
254.2865771499
 20
162.6914801429
 30
0.0
 10
254.2809746745
 20
162.7191521837
 30
0.0
 10
254.2713841918
 20
162.7367290422
 30
0.0
  0
SPLINE
  5
4F2
100
AcDbEntity
  8
10_ALL_FEATURES
100
AcDbSpline
 62
7
  6
CONTINUOUS
 70
0
 71
3
 72
9
 73
5
 74
0
 42
0.0000001
 43
0.0000001
 44
0.0000000001
 40
0.0
 40
0.0
 40
0.0
 40
0.0
 40
0.2283462624
 40
1.0
 40
1.0
 40
1.0
 40
1.0
 10
258.7406665882
 20
164.9280742601
 30
0.0
 10
258.7423214671
 20
164.9337898081
 30
0.0
 10
258.7473989693
 20
164.9594022407
 30
0.0
 10
258.7418575164
 20
164.9870796454
 30
0.0
 10
258.7322551359
 20
165.0047466693
 30
0.0
  0
LINE
  5
4F3
100
AcDbEntity
  8
10_ALL_FEATURES
100
AcDbLine
 62
7
  6
CONTINUOUS
 10
170.0678026077
 20
159.0116567186
 11
170.6524139201
 21
160.592283448
  0
LINE
  5
4F4
100
AcDbEntity
  8
10_ALL_FEATURES
100
AcDbLine
 62
7
  6
CONTINUOUS
 10
202.5441369015
 20
160.592283448
 11
203.1287482139
 21
159.0116567186
  0
LINE
  5
4F5
100
AcDbEntity
  8
10_ALL_FEATURES
100
AcDbLine
 62
7
  6
CONTINUOUS
 10
200.3362379043
 20
166.5489987801
 11
200.7277214171
 21
165.4943168662
  0
LINE
  5
4F6
100
AcDbEntity
  8
10_ALL_FEATURES
100
AcDbLine
 62
7
  6
CONTINUOUS
 10
172.4688294045
 20
165.4943168662
 11
172.8603129173
 21
166.5489987801
  0
LINE
  5
4F7
100
AcDbEntity
  8
10_ALL_FEATURES
100
AcDbLine
 62
7
  6
CONTINUOUS
 10
198.2566900461
 20
172.1401610652
 11
198.516246358
 21
171.4433642403
  0
LINE
  5
4F8
100
AcDbEntity
  8
10_ALL_FEATURES
100
AcDbLine
 62
7
  6
CONTINUOUS
 10
174.6803044636
 20
171.4433642403
 11
174.9398607755
 21
172.1401610652
  0
LINE
  5
4F9
100
AcDbEntity
  8
10_ALL_FEATURES
100
AcDbLine
 62
7
  6
CONTINUOUS
 10
196.1984511856
 20
177.3732707694
 11
196.2822739624
 21
177.107612601
  0
LINE
  5
4FA
100
AcDbEntity
  8
10_ALL_FEATURES
100
AcDbLine
 62
7
  6
CONTINUOUS
 10
176.786352142
 20
177.088137133
 11
176.9440882324
 21
177.5100618455
  0
SPLINE
  5
4FB
100
AcDbEntity
  8
10_ALL_FEATURES
100
AcDbSpline
 62
7
  6
CONTINUOUS
 70
0
 71
3
 72
9
 73
5
 74
0
 42
0.0000001
 43
0.0000001
 44
0.0000000001
 40
0.0
 40
0.0
 40
0.0
 40
0.0
 40
0.4496557158
 40
1.0
 40
1.0
 40
1.0
 40
1.0
 10
236.9547552845
 20
188.1671847492
 30
0.0
 10
236.9388173745
 20
188.1498163845
 30
0.0
 10
236.9156278737
 20
188.097130602
 30
0.0
 10
236.9413568387
 20
188.0412176511
 30
0.0
 10
236.9637472124
 20
188.023022338
 30
0.0
  0
SPLINE
  5
4FC
100
AcDbEntity
  8
10_ALL_FEATURES
100
AcDbSpline
 62
7
  6
CONTINUOUS
 70
0
 71
3
 72
9
 73
5
 74
0
 42
0.0000001
 43
0.0000001
 44
0.0000000001
 40
0.0
 40
0.0
 40
0.0
 40
0.0
 40
0.456819523
 40
1.0
 40
1.0
 40
1.0
 40
1.0
 10
233.8113870024
 20
184.281821296
 30
0.0
 10
233.7951770553
 20
184.2641568439
 30
0.0
 10
233.7723328436
 20
184.2109949239
 30
0.0
 10
233.7984273491
 20
184.1555217059
 30
0.0
 10
233.8205502645
 20
184.1375427527
 30
0.0
  0
SPLINE
  5
4FD
100
AcDbEntity
  8
10_ALL_FEATURES
100
AcDbSpline
 62
7
  6
CONTINUOUS
 70
0
 71
3
 72
9
 73
5
 74
0
 42
0.0000001
 43
0.0000001
 44
0.0000000001
 40
0.0
 40
0.0
 40
0.0
 40
0.0
 40
0.4632256253
 40
1.0
 40
1.0
 40
1.0
 40
1.0
 10
230.6819115575
 20
180.3979073902
 30
0.0
 10
230.6653087602
 20
180.3800139518
 30
0.0
 10
230.6424468834
 20
180.3263299125
 30
0.0
 10
230.6688743302
 20
180.2709775446
 30
0.0
 10
230.6908215182
 20
180.2531344797
 30
0.0
  0
SPLINE
  5
4FE
100
AcDbEntity
  8
10_ALL_FEATURES
100
AcDbSpline
 62
7
  6
CONTINUOUS
 70
0
 71
3
 72
11
 73
7
 74
0
 42
0.0000001
 43
0.0000001
 44
0.0000000001
 40
0.0
 40
0.0
 40
0.0
 40
0.0
 40
0.2395814909
 40
0.4704690805
 40
0.7180618589
 40
1.0
 40
1.0
 40
1.0
 40
1.0
 10
124.1424845425
 20
157.7876235197
 30
0.0
 10
124.1477267738
 20
157.7695629212
 30
0.0
 10
124.168028426
 20
157.7362052921
 30
0.0
 10
124.2201314552
 20
157.708528431
 30
0.0
 10
124.2833888107
 20
157.7136030712
 30
0.0
 10
124.3166304619
 20
157.7450950624
 30
0.0
 10
124.3266824137
 20
157.7648113275
 30
0.0
  0
SPLINE
  5
4FF
100
AcDbEntity
  8
10_ALL_FEATURES
100
AcDbSpline
 62
7
  6
CONTINUOUS
 70
0
 71
3
 72
11
 73
7
 74
0
 42
0.0000001
 43
0.0000001
 44
0.0000000001
 40
0.0
 40
0.0
 40
0.0
 40
0.0
 40
0.2382578013
 40
0.4661328299
 40
0.7120289445
 40
1.0
 40
1.0
 40
1.0
 40
1.0
 10
119.683748596
 20
160.0165034953
 30
0.0
 10
119.6889681237
 20
159.9985409613
 30
0.0
 10
119.7089595042
 20
159.9654674361
 30
0.0
 10
119.7602151271
 20
159.9374660118
 30
0.0
 10
119.823640238
 20
159.9413495299
 30
0.0
 10
119.8576183003
 20
159.9729967603
 30
0.0
 10
119.8678736556
 20
159.9931454775
 30
0.0
  0
SPLINE
  5
500
100
AcDbEntity
  8
10_ALL_FEATURES
100
AcDbSpline
 62
7
  6
CONTINUOUS
 70
0
 71
3
 72
11
 73
7
 74
0
 42
0.0000001
 43
0.0000001
 44
0.0000000001
 40
0.0
 40
0.0
 40
0.0
 40
0.0
 40
0.2368312594
 40
0.4614148011
 40
0.7050417859
 40
1.0
 40
1.0
 40
1.0
 40
1.0
 10
115.2271512072
 20
162.2687952679
 30
0.0
 10
115.232339174
 20
162.2509368662
 30
0.0
 10
115.2519794275
 20
162.2181650784
 30
0.0
 10
115.3022645617
 20
162.1898141931
 30
0.0
 10
115.3658313631
 20
162.1922965309
 30
0.0
 10
115.4006827175
 20
162.2240810775
 30
0.0
 10
115.4111817205
 20
162.2447257713
 30
0.0
  0
SPLINE
  5
501
100
AcDbEntity
  8
10_ALL_FEATURES
100
AcDbSpline
 62
7
  6
CONTINUOUS
 70
0
 71
3
 72
9
 73
5
 74
0
 42
0.0000001
 43
0.0000001
 44
0.0000000001
 40
0.0
 40
0.0
 40
0.0
 40
0.0
 40
0.2679981965
 40
1.0
 40
1.0
 40
1.0
 40
1.0
 10
123.3962691024
 20
160.4680001951
 30
0.0
 10
123.3929029723
 20
160.4618592789
 30
0.0
 10
123.3826675898
 20
160.43770506
 30
0.0
 10
123.3824076409
 20
160.4096220516
 30
0.0
 10
123.3877268792
 20
160.3912488381
 30
0.0
  0
SPLINE
  5
502
100
AcDbEntity
  8
10_ALL_FEATURES
100
AcDbSpline
 62
7
  6
CONTINUOUS
 70
0
 71
3
 72
9
 73
5
 74
0
 42
0.0000001
 43
0.0000001
 44
0.0000000001
 40
0.0
 40
0.0
 40
0.0
 40
0.0
 40
0.2713677478
 40
1.0
 40
1.0
 40
1.0
 40
1.0
 10
118.9251666439
 20
162.7367290786
 30
0.0
 10
118.9217723938
 20
162.7305082981
 30
0.0
 10
118.9116185977
 20
162.7063328505
 30
0.0
 10
118.9114092409
 20
162.6782970058
 30
0.0
 10
118.9167044132
 20
162.6600210292
 30
0.0
  0
SPLINE
  5
503
100
AcDbEntity
  8
10_ALL_FEATURES
100
AcDbSpline
 62
7
  6
CONTINUOUS
 70
0
 71
3
 72
9
 73
5
 74
0
 42
0.0000001
 43
0.0000001
 44
0.0000000001
 40
0.0
 40
0.0
 40
0.0
 40
0.0
 40
0.2755072821
 40
1.0
 40
1.0
 40
1.0
 40
1.0
 10
114.4642956997
 20
165.0047467056
 30
0.0
 10
114.4608615527
 20
164.9984283569
 30
0.0
 10
114.4507824685
 20
164.9742285213
 30
0.0
 10
114.4506248321
 20
164.9462389277
 30
0.0
 10
114.4558842336
 20
164.9280742589
 30
0.0
  0
SPLINE
  5
504
100
AcDbEntity
  8
10_ALL_FEATURES
100
AcDbSpline
 62
7
  6
CONTINUOUS
 70
0
 71
3
 72
9
 73
5
 74
0
 42
0.0000001
 43
0.0000001
 44
0.0000000001
 40
0.0
 40
0.0
 40
0.0
 40
0.0
 40
0.5503389931
 40
1.0
 40
1.0
 40
1.0
 40
1.0
 10
136.2328036096
 20
188.0230223385
 30
0.0
 10
136.2551937666
 20
188.0412174771
 30
0.0
 10
136.2809228525
 20
188.0971301237
 30
0.0
 10
136.2577336342
 20
188.1498161805
 30
0.0
 10
136.2417955371
 20
188.1671847492
 30
0.0
  0
SPLINE
  5
505
100
AcDbEntity
  8
10_ALL_FEATURES
100
AcDbSpline
 62
7
  6
CONTINUOUS
 70
0
 71
3
 72
9
 73
5
 74
0
 42
0.0000001
 43
0.0000001
 44
0.0000000001
 40
0.0
 40
0.0
 40
0.0
 40
0.0
 40
0.5431770156
 40
1.0
 40
1.0
 40
1.0
 40
1.0
 10
139.3760005574
 20
184.1375427531
 30
0.0
 10
139.3981233324
 20
184.1555215937
 30
0.0
 10
139.4242179511
 20
184.210994612
 30
0.0
 10
139.4013738902
 20
184.264156709
 30
0.0
 10
139.3851638192
 20
184.2818212959
 30
0.0
  0
SPLINE
  5
506
100
AcDbEntity
  8
10_ALL_FEATURES
100
AcDbSpline
 62
7
  6
CONTINUOUS
 70
0
 71
3
 72
9
 73
5
 74
0
 42
0.0000001
 43
0.0000001
 44
0.0000000001
 40
0.0
 40
0.0
 40
0.0
 40
0.0
 40
0.5367727949
 40
1.0
 40
1.0
 40
1.0
 40
1.0
 10
142.5057293033
 20
180.2531344796
 30
0.0
 10
142.5276764277
 20
180.2709774925
 30
0.0
 10
142.5541039306
 20
180.3263297692
 30
0.0
 10
142.5312421188
 20
180.3800138903
 30
0.0
 10
142.5146392641
 20
180.3979073902
 30
0.0
  0
SPLINE
  5
507
100
AcDbEntity
  8
10_ALL_FEATURES
100
AcDbSpline
 62
7
  6
CONTINUOUS
 70
0
 71
3
 72
9
 73
5
 74
0
 42
0.0000001
 43
0.0000001
 44
0.0000000001
 40
0.0
 40
0.0
 40
0.0
 40
0.0
 40
0.2484448349
 40
1.0
 40
1.0
 40
1.0
 40
1.0
 10
123.3877268791
 20
160.3912488393
 30
0.0
 10
123.4464914235
 20
160.1882695407
 30
0.0
 10
123.6830886514
 20
159.3712896652
 30
0.0
 10
123.9199547783
 20
158.5543876645
 30
0.0
 10
124.0981190776
 20
157.9404832331
 30
0.0
  0
SPLINE
  5
508
100
AcDbEntity
  8
10_ALL_FEATURES
100
AcDbSpline
 62
7
  6
CONTINUOUS
 70
0
 71
3
 72
9
 73
5
 74
0
 42
0.0000001
 43
0.0000001
 44
0.0000000001
 40
0.0
 40
0.0
 40
0.0
 40
0.0
 40
0.2480537795
 40
1.0
 40
1.0
 40
1.0
 40
1.0
 10
118.9167044131
 20
162.6600210303
 30
0.0
 10
118.9800410915
 20
162.4414179029
 30
0.0
 10
119.2354634539
 20
161.5601702552
 30
0.0
 10
119.4912344273
 20
160.6790236529
 30
0.0
 10
119.683748596
 20
160.0165034953
 30
0.0
  0
SPLINE
  5
509
100
AcDbEntity
  8
10_ALL_FEATURES
100
AcDbSpline
 62
7
  6
CONTINUOUS
 70
0
 71
3
 72
9
 73
5
 74
0
 42
0.0000001
 43
0.0000001
 44
0.0000000001
 40
0.0
 40
0.0
 40
0.0
 40
0.0
 40
0.2476939043
 40
1.0
 40
1.0
 40
1.0
 40
1.0
 10
114.4558842334
 20
164.9280742602
 30
0.0
 10
114.5194646024
 20
164.7084831663
 30
0.0
 10
114.7762554038
 20
163.8219703846
 30
0.0
 10
115.0334481957
 20
162.9355740502
 30
0.0
 10
115.2271512072
 20
162.2687952679
 30
0.0
  0
SPLINE
  5
50A
100
AcDbEntity
  8
10_ALL_FEATURES
100
AcDbSpline
 62
7
  6
CONTINUOUS
 70
0
 71
3
 72
9
 73
5
 74
0
 42
0.0000001
 43
0.0000001
 44
0.0000000001
 40
0.0
 40
0.0
 40
0.0
 40
0.0
 40
0.2515435135
 40
1.0
 40
1.0
 40
1.0
 40
1.0
 10
249.098431744
 20
157.9404832331
 30
0.0
 10
249.1580628608
 20
158.1459554124
 30
0.0
 10
249.3950585032
 20
158.9628198012
 30
0.0
 10
249.6317918684
 20
159.7797602859
 30
0.0
 10
249.8088239425
 20
160.3912488393
 30
0.0
  0
SPLINE
  5
50B
100
AcDbEntity
  8
10_ALL_FEATURES
100
AcDbSpline
 62
7
  6
CONTINUOUS
 70
0
 71
3
 72
9
 73
5
 74
0
 42
0.0000001
 43
0.0000001
 44
0.0000000001
 40
0.0
 40
0.0
 40
0.0
 40
0.0
 40
0.251931271
 40
1.0
 40
1.0
 40
1.0
 40
1.0
 10
253.5128022255
 20
160.0165034954
 30
0.0
 10
253.5773019701
 20
160.2384735522
 30
0.0
 10
253.8332392769
 20
161.1195717832
 30
0.0
 10
254.0888386817
 20
162.0007681698
 30
0.0
 10
254.2798464085
 20
162.6600210303
 30
0.0
  0
SPLINE
  5
50C
100
AcDbEntity
  8
10_ALL_FEATURES
100
AcDbSpline
 62
7
  6
CONTINUOUS
 70
0
 71
3
 72
9
 73
5
 74
0
 42
0.0000001
 43
0.0000001
 44
0.0000000001
 40
0.0
 40
0.0
 40
0.0
 40
0.0
 40
0.262802782
 40
1.0
 40
1.0
 40
1.0
 40
1.0
 10
302.4679809248
 20
110.8139447625
 30
0.0
 10
302.4679082675
 20
110.958072017
 30
0.0
 10
302.4629763712
 20
111.5064553894
 30
0.0
 10
302.4399429035
 20
112.054889249
 30
0.0
 10
302.4073965652
 20
112.4578735328
 30
0.0
  0
LINE
  5
50D
100
AcDbEntity
  8
10_ALL_FEATURES
100
AcDbLine
 62
7
  6
CONTINUOUS
 10
302.4679811301
 20
110.8139447432
 11
302.4709332334
 21
104.3646959793
  0
LINE
  5
50E
100
AcDbEntity
  8
10_ALL_FEATURES
100
AcDbLine
 62
7
  6
CONTINUOUS
 10
70.7256175105
 20
104.3646828628
 11
70.7285694654
 21
110.8139434727
  0
SPLINE
  5
50F
100
AcDbEntity
  8
10_ALL_FEATURES
100
AcDbSpline
 62
7
  6
CONTINUOUS
 70
0
 71
3
 72
9
 73
5
 74
0
 42
0.0000001
 43
0.0000001
 44
0.0000000001
 40
0.0
 40
0.0
 40
0.0
 40
0.0
 40
0.2350717485
 40
1.0
 40
1.0
 40
1.0
 40
1.0
 10
70.789153998
 20
112.4578702
 30
0.0
 10
70.7787757539
 20
112.3293677786
 30
0.0
 10
70.7417477981
 20
111.782145704
 30
0.0
 10
70.7287811257
 20
111.2334544293
 30
0.0
 10
70.7285696803
 20
110.8139434809
 30
0.0
  0
SPLINE
  5
510
100
AcDbEntity
  8
10_ALL_FEATURES
100
AcDbSpline
 62
7
  6
CONTINUOUS
 70
0
 71
3
 72
9
 73
5
 74
0
 42
0.0000001
 43
0.0000001
 44
0.0000000001
 40
0.0
 40
0.0
 40
0.0
 40
0.0
 40
0.2350717346
 40
1.0
 40
1.0
 40
1.0
 40
1.0
 10
302.4073968601
 20
139.3850548103
 30
0.0
 10
302.4177751074
 20
139.513557187
 30
0.0
 10
302.4548030559
 20
140.0607791058
 30
0.0
 10
302.4677696891
 20
140.6094702248
 30
0.0
 10
302.4679811424
 20
141.0289810612
 30
0.0
  0
SPLINE
  5
511
100
AcDbEntity
  8
10_ALL_FEATURES
100
AcDbSpline
 62
7
  6
CONTINUOUS
 70
0
 71
3
 72
9
 73
5
 74
0
 42
0.0000001
 43
0.0000001
 44
0.0000000001
 40
0.0
 40
0.0
 40
0.0
 40
0.0
 40
0.2628027667
 40
1.0
 40
1.0
 40
1.0
 40
1.0
 10
70.7285699026
 20
141.0289791967
 30
0.0
 10
70.7286425533
 20
140.8848523099
 30
0.0
 10
70.7335744311
 20
140.336470305
 30
0.0
 10
70.7566077388
 20
139.7880378062
 30
0.0
 10
70.7891540204
 20
139.3850545204
 30
0.0
  0
LINE
  5
512
100
AcDbEntity
  8
10_ALL_FEATURES
100
AcDbLine
 62
7
  6
CONTINUOUS
 10
70.7285696917
 20
141.0289792098
 11
70.7256175882
 21
147.478228472
  0
LINE
  5
513
100
AcDbEntity
  8
10_ALL_FEATURES
100
AcDbLine
 62
7
  6
CONTINUOUS
 10
302.4709333111
 20
147.4782415905
 11
302.4679813562
 21
141.0289810705
  0
SPLINE
  5
514
100
AcDbEntity
  8
10_ALL_FEATURES
100
AcDbSpline
 62
7
  6
CONTINUOUS
 70
0
 71
3
 72
11
 73
7
 74
0
 42
0.0000001
 43
0.0000001
 44
0.0000000001
 40
0.0
 40
0.0
 40
0.0
 40
0.0
 40
0.2996035194
 40
0.5783714465
 40
0.817142878
 40
1.0
 40
1.0
 40
1.0
 40
1.0
 10
302.0806314645
 20
94.7367378147
 30
0.0
 10
302.1414563928
 20
95.0804070464
 30
0.0
 10
302.2516160642
 20
95.7451388147
 30
0.0
 10
302.3848240872
 20
96.6878533349
 30
0.0
 10
302.4724882003
 20
97.4990310867
 30
0.0
 10
302.5014999392
 20
97.9900207
 30
0.0
 10
302.5006905222
 20
98.2030307623
 30
0.0
  0
SPLINE
  5
515
100
AcDbEntity
  8
10_ALL_FEATURES
100
AcDbSpline
 62
7
  6
CONTINUOUS
 70
0
 71
3
 72
11
 73
7
 74
0
 42
0.0000001
 43
0.0000001
 44
0.0000000001
 40
0.0
 40
0.0
 40
0.0
 40
0.0
 40
0.1828577704
 40
0.4216293236
 40
0.7003969722
 40
1.0
 40
1.0
 40
1.0
 40
1.0
 10
70.6958684413
 20
98.2029756345
 30
0.0
 10
70.6950594752
 20
97.9899653387
 30
0.0
 10
70.7240716098
 20
97.4989760837
 30
0.0
 10
70.8117358985
 20
96.6877997862
 30
0.0
 10
70.944943629
 20
95.7450883562
 30
0.0
 10
71.0551029125
 20
95.0803591117
 30
0.0
 10
71.1159275916
 20
94.7366912888
 30
0.0
  0
SPLINE
  5
516
100
AcDbEntity
  8
10_ALL_FEATURES
100
AcDbSpline
 62
7
  6
CONTINUOUS
 70
0
 71
3
 72
11
 73
7
 74
0
 42
0.0000001
 43
0.0000001
 44
0.0000000001
 40
0.0
 40
0.0
 40
0.0
 40
0.0
 40
0.1647943959
 40
0.3927833393
 40
0.6750067986
 40
1.0
 40
1.0
 40
1.0
 40
1.0
 10
302.5032304945
 20
155.7469353698
 30
0.0
 10
302.502909504
 20
155.8673035299
 30
0.0
 10
302.4840669498
 20
156.153951178
 30
0.0
 10
302.4312195495
 20
156.6441018353
 30
0.0
 10
302.349816342
 20
157.248785797
 30
0.0
 10
302.2835599812
 20
157.6873314614
 30
0.0
 10
302.2467918215
 20
157.9218471214
 30
0.0
  0
SPLINE
  5
517
100
AcDbEntity
  8
10_ALL_FEATURES
100
AcDbSpline
 62
7
  6
CONTINUOUS
 70
0
 71
3
 72
9
 73
5
 74
0
 42
0.0000001
 43
0.0000001
 44
0.0000000001
 40
0.0
 40
0.0
 40
0.0
 40
0.0
 40
0.3741305032
 40
1.0
 40
1.0
 40
1.0
 40
1.0
 10
302.5032327948
 20
155.7469357038
 30
0.0
 10
302.5052532093
 20
154.9906527726
 30
0.0
 10
302.4993483517
 20
152.9691950289
 30
0.0
 10
302.4877588269
 20
150.9477822559
 30
0.0
 10
302.4785952102
 20
149.682652344
 30
0.0
  0
SPLINE
  5
518
100
AcDbEntity
  8
10_ALL_FEATURES
100
AcDbSpline
 62
7
  6
CONTINUOUS
 70
0
 71
3
 72
9
 73
5
 74
0
 42
0.0000001
 43
0.0000001
 44
0.0000000001
 40
0.0
 40
0.0
 40
0.0
 40
0.0
 40
0.6258814971
 40
1.0
 40
1.0
 40
1.0
 40
1.0
 10
70.7179535739
 20
149.6826520167
 30
0.0
 10
70.7087874934
 20
150.9477945093
 30
0.0
 10
70.6971951749
 20
152.9691886337
 30
0.0
 10
70.6912874986
 20
154.9906277483
 30
0.0
 10
70.6933079808
 20
155.7468794516
 30
0.0
  0
SPLINE
  5
519
100
AcDbEntity
  8
10_ALL_FEATURES
100
AcDbSpline
 62
7
  6
CONTINUOUS
 70
0
 71
3
 72
11
 73
7
 74
0
 42
0.0000001
 43
0.0000001
 44
0.0000000001
 40
0.0
 40
0.0
 40
0.0
 40
0.0
 40
0.3249932715
 40
0.6072170404
 40
0.8352060792
 40
1.0
 40
1.0
 40
1.0
 40
1.0
 10
70.9497578765
 20
157.9218471214
 30
0.0
 10
70.9129885371
 20
157.6873253504
 30
0.0
 10
70.8467299996
 20
157.2487680784
 30
0.0
 10
70.7653239892
 20
156.6440681435
 30
0.0
 10
70.7124746794
 20
156.1539048634
 30
0.0
 10
70.6936313139
 20
155.8672500571
 30
0.0
 10
70.6933102905
 20
155.7468791161
 30
0.0
  0
SPLINE
  5
51A
100
AcDbEntity
  8
10_ALL_FEATURES
100
AcDbSpline
 62
7
  6
CONTINUOUS
 70
0
 71
3
 72
9
 73
5
 74
0
 42
0.0000001
 43
0.0000001
 44
0.0000000001
 40
0.0
 40
0.0
 40
0.0
 40
0.0
 40
0.2522892597
 40
1.0
 40
1.0
 40
1.0
 40
1.0
 10
257.9693996145
 20
162.2687952677
 30
0.0
 10
258.0343587975
 20
162.4924025551
 30
0.0
 10
258.2917417279
 20
163.3787436022
 30
0.0
 10
258.5487372596
 20
164.2651971507
 30
0.0
 10
258.7406665882
 20
164.9280742602
 30
0.0
  0
SPLINE
  5
51B
100
AcDbEntity
  8
10_ALL_FEATURES
100
AcDbSpline
 62
7
  6
CONTINUOUS
 70
0
 71
3
 72
9
 73
5
 74
0
 42
0.0000001
 43
0.0000001
 44
0.0000000001
 40
0.0
 40
0.0
 40
0.0
 40
0.0
 40
0.2469642174
 40
1.0
 40
1.0
 40
1.0
 40
1.0
 10
268.8372214414
 20
72.8964825156
 30
0.0
 10
268.8032346477
 20
73.0640382267
 30
0.0
 10
268.6655167353
 20
73.7424795072
 30
0.0
 10
268.527405645
 20
74.4208409678
 30
0.0
 10
268.4231957308
 20
74.9316290808
 30
0.0
  0
LINE
  5
51C
100
AcDbEntity
  8
10_ALL_FEATURES
100
AcDbLine
 62
7
  6
CONTINUOUS
 10
272.2004283371
 20
70.5503381188
 11
272.1832720625
 21
70.6363699312
  0
SPLINE
  5
51D
100
AcDbEntity
  8
10_ALL_FEATURES
100
AcDbSpline
 62
7
  6
CONTINUOUS
 70
0
 71
3
 72
9
 73
5
 74
0
 42
0.0000001
 43
0.0000001
 44
0.0000000001
 40
0.0
 40
0.0
 40
0.0
 40
0.0
 40
0.2460516414
 40
1.0
 40
1.0
 40
1.0
 40
1.0
 10
272.1832720625
 20
70.6363699312
 30
0.0
 10
272.148701695
 20
70.8096970096
 30
0.0
 10
272.0080624466
 20
71.514103064
 30
0.0
 10
271.8668782223
 20
72.2184002911
 30
0.0
 10
271.7601507451
 20
72.7493472911
 30
0.0
  0
SPLINE
  5
51E
100
AcDbEntity
  8
10_ALL_FEATURES
100
AcDbSpline
 62
7
  6
CONTINUOUS
 70
0
 71
3
 72
9
 73
5
 74
0
 42
0.0000001
 43
0.0000001
 44
0.0000000001
 40
0.0
 40
0.0
 40
0.0
 40
0.0
 40
0.2530218672
 40
1.0
 40
1.0
 40
1.0
 40
1.0
 10
104.7733550907
 20
74.9316290808
 30
0.0
 10
104.7383403052
 20
74.760003028
 30
0.0
 10
104.600046524
 20
74.0816789184
 30
0.0
 10
104.4621272421
 20
73.4032784491
 30
0.0
 10
104.35932939
 20
72.8964825643
 30
0.0
  0
LINE
  5
51F
100
AcDbEntity
  8
10_ALL_FEATURES
100
AcDbLine
 62
7
  6
CONTINUOUS
 10
101.0132787591
 20
70.6363699312
 11
100.9961224845
 21
70.5503381188
  0
SPLINE
  5
520
100
AcDbEntity
  8
10_ALL_FEATURES
100
AcDbSpline
 62
7
  6
CONTINUOUS
 70
0
 71
3
 72
9
 73
5
 74
0
 42
0.0000001
 43
0.0000001
 44
0.0000000001
 40
0.0
 40
0.0
 40
0.0
 40
0.0
 40
0.253930068
 40
1.0
 40
1.0
 40
1.0
 40
1.0
 10
101.4364000765
 20
72.7493472911
 30
0.0
 10
101.4004542253
 20
72.570524158
 30
0.0
 10
101.2590223195
 20
71.8662768337
 30
0.0
 10
101.1181019238
 20
71.1619267644
 30
0.0
 10
101.0132787591
 20
70.6363699312
 30
0.0
  0
SPLINE
  5
521
100
AcDbEntity
  8
10_ALL_FEATURES
100
AcDbSpline
 62
9
  6
CONTINUOUS
 70
0
 71
3
 72
12
 73
8
 74
0
 42
0.0000001
 43
0.0000001
 44
0.0000000001
 40
0.0
 40
0.0
 40
0.0
 40
0.0
 40
0.1842330674
 40
0.3741925448
 40
0.6394328986
 40
0.8334669267
 40
1.0
 40
1.0
 40
1.0
 40
1.0
 10
233.0370278673
 20
207.5774912804
 30
0.0
 10
232.9392941376
 20
207.5762300008
 30
0.0
 10
232.7390097292
 20
207.6037687901
 30
0.0
 10
232.4286500872
 20
207.7533673829
 30
0.0
 10
232.1890554291
 20
208.0178998177
 30
0.0
 10
232.0696831337
 20
208.3327355149
 30
0.0
 10
232.0527334118
 20
208.5255833232
 30
0.0
 10
232.0557766629
 20
208.6138823185
 30
0.0
  0
SPLINE
  5
522
100
AcDbEntity
  8
10_ALL_FEATURES
100
AcDbSpline
 62
9
  6
CONTINUOUS
 70
0
 71
3
 72
23
 73
19
 74
0
 42
0.0000001
 43
0.0000001
 44
0.0000000001
 40
0.0
 40
0.0
 40
0.0
 40
0.0
 40
0.1490799163
 40
0.2977715879
 40
0.4454436935
 40
0.5908083746
 40
0.6617945468
 40
0.7307108873
 40
0.7960857579
 40
0.8549529053
 40
0.8802915275
 40
0.9016066521
 40
0.9181621963
 40
0.9308031147
 40
0.9431718869
 40
0.9585875678
 40
0.9777051134
 40
1.0
 40
1.0
 40
1.0
 40
1.0
 10
245.5776319232
 20
208.8213368463
 30
0.0
 10
245.6775610057
 20
208.7819130546
 30
0.0
 10
245.8764579485
 20
208.7013748508
 30
0.0
 10
246.1714552141
 20
208.5747949288
 30
0.0
 10
246.4607782177
 20
208.4420156123
 30
0.0
 10
246.6956195791
 20
208.3249759113
 30
0.0
 10
246.8761590491
 20
208.2266471475
 30
0.0
 10
247.0037673892
 20
208.151749223
 30
0.0
 10
247.1204648008
 20
208.075825624
 30
0.0
 10
247.2066313967
 20
208.0106820589
 30
0.0
 10
247.2617843675
 20
207.9581412256
 30
0.0
 10
247.2906034028
 20
207.9226965821
 30
0.0
 10
247.3077424542
 20
207.8900123517
 30
0.0
 10
247.3080527495
 20
207.8579314283
 30
0.0
 10
247.2871157369
 20
207.8348871021
 30
0.0
 10
247.2553365089
 20
207.8222297031
 30
0.0
 10
247.2149283334
 20
207.8148189975
 30
0.0
 10
247.1850750399
 20
207.8131379453
 30
0.0
 10
247.1690133578
 20
207.8127948234
 30
0.0
  0
SPLINE
  5
523
100
AcDbEntity
  8
10_ALL_FEATURES
100
AcDbSpline
 62
7
  6
CONTINUOUS
 70
0
 71
3
 72
9
 73
5
 74
0
 42
0.0000001
 43
0.0000001
 44
0.0000000001
 40
0.0
 40
0.0
 40
0.0
 40
0.0
 40
0.6400576929
 40
1.0
 40
1.0
 40
1.0
 40
1.0
 10
240.4238352314
 20
210.6808588157
 30
0.0
 10
240.4081683914
 20
210.6808588157
 30
0.0
 10
240.3864371175
 20
210.6813472118
 30
0.0
 10
240.3565315001
 20
210.6706662158
 30
0.0
 10
240.3552055464
 20
210.6619561736
 30
0.0
  0
SPLINE
  5
524
100
AcDbEntity
  8
10_ALL_FEATURES
100
AcDbSpline
 62
9
  6
CONTINUOUS
 70
0
 71
3
 72
23
 73
19
 74
0
 42
0.0000001
 43
0.0000001
 44
0.0000000001
 40
0.0
 40
0.0
 40
0.0
 40
0.0
 40
0.0222918883
 40
0.0414041963
 40
0.0568192309
 40
0.0691851279
 40
0.0818214943
 40
0.0983718967
 40
0.1196889655
 40
0.1450337206
 40
0.2039071441
 40
0.2692854531
 40
0.3382050718
 40
0.4091929648
 40
0.5545582519
 40
0.7022299993
 40
0.8509210556
 40
1.0
 40
1.0
 40
1.0
 40
1.0
 10
126.0275374638
 20
207.8127948234
 30
0.0
 10
126.011477992
 20
207.8131383134
 30
0.0
 10
125.9816304575
 20
207.8148195425
 30
0.0
 10
125.9412297746
 20
207.8222278412
 30
0.0
 10
125.9094507405
 20
207.8348714023
 30
0.0
 10
125.8885169034
 20
207.8579079965
 30
0.0
 10
125.8888062236
 20
207.8899768581
 30
0.0
 10
125.9059269699
 20
207.9226663979
 30
0.0
 10
125.9347408893
 20
207.958118203
 30
0.0
 10
125.989901623
 20
208.0106660214
 30
0.0
 10
126.0760746556
 20
208.0758191332
 30
0.0
 10
126.1927794803
 20
208.1517482113
 30
0.0
 10
126.3203932242
 20
208.22664811
 30
0.0
 10
126.5009361154
 20
208.3249779401
 30
0.0
 10
126.7357779976
 20
208.4420182162
 30
0.0
 10
127.0250998976
 20
208.5747973676
 30
0.0
 10
127.3200954131
 20
208.7013757118
 30
0.0
 10
127.5189907196
 20
208.7819134271
 30
0.0
 10
127.6189188984
 20
208.8213368463
 30
0.0
  0
SPLINE
  5
525
100
AcDbEntity
  8
10_ALL_FEATURES
100
AcDbSpline
 62
7
  6
CONTINUOUS
 70
0
 71
3
 72
9
 73
5
 74
0
 42
0.0000001
 43
0.0000001
 44
0.0000000001
 40
0.0
 40
0.0
 40
0.0
 40
0.0
 40
0.2480864291
 40
1.0
 40
1.0
 40
1.0
 40
1.0
 10
254.3546705765
 20
162.6676754121
 30
0.0
 10
254.286518688
 20
162.4329059725
 30
0.0
 10
254.011714023
 20
161.4866122092
 30
0.0
 10
253.7365349167
 20
160.5404271876
 30
0.0
 10
253.5294217741
 20
159.8290367374
 30
0.0
  0
LINE
  5
526
100
AcDbEntity
  8
10_ALL_FEATURES
100
AcDbLine
 62
9
  6
CONTINUOUS
 10
254.3546705765
 20
162.6676754121
 11
254.2798464085
 21
162.6600210303
  0
SPLINE
  5
527
100
AcDbEntity
  8
10_ALL_FEATURES
100
AcDbSpline
 62
9
  6
CONTINUOUS
 70
0
 71
3
 72
12
 73
8
 74
0
 42
0.0000001
 43
0.0000001
 44
0.0000000001
 40
0.0
 40
0.0
 40
0.0
 40
0.0
 40
0.1665369073
 40
0.3605741206
 40
0.6257962528
 40
0.8157192316
 40
1.0
 40
1.0
 40
1.0
 40
1.0
 10
141.1407741586
 20
208.6138823185
 30
0.0
 10
141.143817431
 20
208.5255812302
 30
0.0
 10
141.126864941
 20
208.3327299761
 30
0.0
 10
141.0074957118
 20
208.0178983627
 30
0.0
 10
140.7679171613
 20
207.7533929244
 30
0.0
 10
140.4575751707
 20
207.6037710392
 30
0.0
 10
140.2572820662
 20
207.5762306561
 30
0.0
 10
140.1595229542
 20
207.5774912804
 30
0.0
  0
LINE
  5
528
100
AcDbEntity
  8
10_ALL_FEATURES
100
AcDbLine
 62
9
  6
CONTINUOUS
 10
257.9693996145
 20
162.2687952677
 11
257.9867455601
 21
162.0714557811
  0
SPLINE
  5
529
100
AcDbEntity
  8
10_ALL_FEATURES
100
AcDbSpline
 62
7
  6
CONTINUOUS
 70
0
 71
3
 72
9
 73
5
 74
0
 42
0.0000001
 43
0.0000001
 44
0.0000000001
 40
0.0
 40
0.0
 40
0.0
 40
0.0
 40
0.2477469497
 40
1.0
 40
1.0
 40
1.0
 40
1.0
 10
258.819527294
 20
164.9360241295
 30
0.0
 10
258.750859973
 20
164.6994307244
 30
0.0
 10
258.473584451
 20
163.7444820813
 30
0.0
 10
258.195879817
 20
162.789658039
 30
0.0
 10
257.9867455601
 20
162.0714557811
 30
0.0
  0
LINE
  5
52A
100
AcDbEntity
  8
10_ALL_FEATURES
100
AcDbLine
 62
9
  6
CONTINUOUS
 10
258.819527294
 20
164.9360241295
 11
258.7406665882
 21
164.9280742602
  0
SPLINE
  5
52B
100
AcDbEntity
  8
10_ALL_FEATURES
100
AcDbSpline
 62
7
  6
CONTINUOUS
 70
0
 71
3
 72
9
 73
5
 74
0
 42
0.0000001
 43
0.0000001
 44
0.0000000001
 40
0.0
 40
0.0
 40
0.0
 40
0.0
 40
0.3599333459
 40
1.0
 40
1.0
 40
1.0
 40
1.0
 10
132.8413441287
 20
210.6619561991
 30
0.0
 10
132.8400182039
 20
210.6706659101
 30
0.0
 10
132.8101137736
 20
210.6813477952
 30
0.0
 10
132.7883824495
 20
210.6808588157
 30
0.0
 10
132.7727155902
 20
210.6808588157
 30
0.0
  0
SPLINE
  5
52C
100
AcDbEntity
  8
10_ALL_FEATURES
100
AcDbSpline
 62
7
  6
CONTINUOUS
 70
0
 71
3
 72
9
 73
5
 74
0
 42
0.0000001
 43
0.0000001
 44
0.0000000001
 40
0.0
 40
0.0
 40
0.0
 40
0.0
 40
0.5474611931
 40
1.0
 40
1.0
 40
1.0
 40
1.0
 10
236.8561715072
 20
188.0129127068
 30
0.0
 10
236.8343818451
 20
188.0305831061
 30
0.0
 10
236.8086067958
 20
188.0843147068
 30
0.0
 10
236.8292805834
 20
188.136475709
 30
0.0
 10
236.844262506
 20
188.1541763656
 30
0.0
  0
LINE
  5
52D
100
AcDbEntity
  8
10_ALL_FEATURES
100
AcDbLine
 62
9
  6
CONTINUOUS
 10
115.3939795428
 20
162.047943976
 11
115.4111817205
 21
162.2447257713
  0
LINE
  5
52E
100
AcDbEntity
  8
10_ALL_FEATURES
100
AcDbLine
 62
9
  6
CONTINUOUS
 10
119.8513924243
 20
159.8061674321
 11
119.8678736556
 21
159.9931454775
  0
LINE
  5
52F
100
AcDbEntity
  8
10_ALL_FEATURES
100
AcDbLine
 62
9
  6
CONTINUOUS
 10
124.3109965825
 20
157.5888375178
 11
124.3266824137
 21
157.7648113275
  0
LINE
  5
530
100
AcDbEntity
  8
10_ALL_FEATURES
100
AcDbLine
 62
9
  6
CONTINUOUS
 10
257.7853691012
 20
162.2447257711
 11
257.8025712789
 21
162.0479439758
  0
SPLINE
  5
531
100
AcDbEntity
  8
10_ALL_FEATURES
100
AcDbSpline
 62
7
  6
CONTINUOUS
 70
0
 71
3
 72
9
 73
5
 74
0
 42
0.0000001
 43
0.0000001
 44
0.0000000001
 40
0.0
 40
0.0
 40
0.0
 40
0.0
 40
0.5406905496
 40
1.0
 40
1.0
 40
1.0
 40
1.0
 10
233.7186841201
 20
184.1281289962
 30
0.0
 10
233.697114388
 20
184.145621886
 30
0.0
 10
233.671014081
 20
184.1990739636
 30
0.0
 10
233.6914941459
 20
184.2516892435
 30
0.0
 10
233.7067742549
 20
184.269663584
 30
0.0
  0
SPLINE
  5
532
100
AcDbEntity
  8
10_ALL_FEATURES
100
AcDbSpline
 62
7
  6
CONTINUOUS
 70
0
 71
3
 72
9
 73
5
 74
0
 42
0.0000001
 43
0.0000001
 44
0.0000000001
 40
0.0
 40
0.0
 40
0.0
 40
0.0
 40
0.5349300703
 40
1.0
 40
1.0
 40
1.0
 40
1.0
 10
230.5932848524
 20
180.2445167444
 30
0.0
 10
230.5718427066
 20
180.2619120971
 30
0.0
 10
230.5454381227
 20
180.3153666248
 30
0.0
 10
230.5660486202
 20
180.3684760148
 30
0.0
 10
230.5817220143
 20
180.3866580556
 30
0.0
  0
SPLINE
  5
533
100
AcDbEntity
  8
10_ALL_FEATURES
100
AcDbSpline
 62
7
  6
CONTINUOUS
 70
0
 71
3
 72
11
 73
7
 74
0
 42
0.0000001
 43
0.0000001
 44
0.0000000001
 40
0.0
 40
0.0
 40
0.0
 40
0.0
 40
0.2685293259
 40
0.5115384087
 40
0.7482744924
 40
1.0
 40
1.0
 40
1.0
 40
1.0
 10
124.3109965825
 20
157.5888375178
 30
0.0
 10
124.3014302727
 20
157.5701054419
 30
0.0
 10
124.2700767424
 20
157.5396198844
 30
0.0
 10
124.2084647844
 20
157.5320133083
 30
0.0
 10
124.1541402509
 20
157.5577475762
 30
0.0
 10
124.1322110322
 20
157.592100661
 30
0.0
 10
124.1266471749
 20
157.6110165781
 30
0.0
  0
SPLINE
  5
534
100
AcDbEntity
  8
10_ALL_FEATURES
100
AcDbSpline
 62
7
  6
CONTINUOUS
 70
0
 71
3
 72
11
 73
7
 74
0
 42
0.0000001
 43
0.0000001
 44
0.0000000001
 40
0.0
 40
0.0
 40
0.0
 40
0.0
 40
0.2853573489
 40
0.5318866912
 40
0.7610220754
 40
1.0
 40
1.0
 40
1.0
 40
1.0
 10
119.8513924243
 20
159.8061674321
 30
0.0
 10
119.8412681726
 20
159.7861640581
 30
0.0
 10
119.8076530954
 20
159.7544835078
 30
0.0
 10
119.7442622079
 20
159.7499790534
 30
0.0
 10
119.6925590587
 20
159.7777944909
 30
0.0
 10
119.6723774574
 20
159.8110095437
 30
0.0
 10
119.6671290474
 20
159.8290367373
 30
0.0
  0
SPLINE
  5
535
100
AcDbEntity
  8
10_ALL_FEATURES
100
AcDbSpline
 62
7
  6
CONTINUOUS
 70
0
 71
3
 72
11
 73
7
 74
0
 42
0.0000001
 43
0.0000001
 44
0.0000000001
 40
0.0
 40
0.0
 40
0.0
 40
0.0
 40
0.2917566231
 40
0.5363161743
 40
0.7623590719
 40
1.0
 40
1.0
 40
1.0
 40
1.0
 10
115.3939795428
 20
162.047943976
 30
0.0
 10
115.3836331125
 20
162.0274865182
 30
0.0
 10
115.3492229395
 20
161.9956701025
 30
0.0
 10
115.2856838104
 20
161.9924495846
 30
0.0
 10
115.234879604
 20
162.0205996402
 30
0.0
 10
115.2150257988
 20
162.0535275773
 30
0.0
 10
115.2098052616
 20
162.0714557813
 30
0.0
  0
SPLINE
  5
536
100
AcDbEntity
  8
10_ALL_FEATURES
100
AcDbSpline
 62
9
  6
CONTINUOUS
 70
0
 71
3
 72
18
 73
14
 74
0
 42
0.0000001
 43
0.0000001
 44
0.0000000001
 40
0.0
 40
0.0
 40
0.0
 40
0.0
 40
0.1929040756
 40
0.3785304517
 40
0.5499455995
 40
0.7006929657
 40
0.8251190666
 40
0.8759603546
 40
0.918563756
 40
0.9525260231
 40
0.9775401885
 40
0.9933785419
 40
1.0
 40
1.0
 40
1.0
 40
1.0
 10
234.5995630969
 20
207.8779768803
 30
0.0
 10
234.5030777088
 20
207.8779768271
 30
0.0
 10
234.3137465759
 20
207.8776615421
 30
0.0
 10
234.0386830134
 20
207.8762486175
 30
0.0
 10
233.7847061886
 20
207.8739708848
 30
0.0
 10
233.5613671263
 20
207.8708937304
 30
0.0
 10
233.3983034061
 20
207.8676863153
 30
0.0
 10
233.2894202651
 20
207.8645933718
 30
0.0
 10
233.2256268491
 20
207.8624936189
 30
0.0
 10
233.175153174
 20
207.8598725019
 30
0.0
 10
233.1371307577
 20
207.8583566496
 30
0.0
 10
233.1147519427
 20
207.8546784214
 30
0.0
 10
233.1021362737
 20
207.8545903454
 30
0.0
 10
233.0997916238
 20
207.8522513018
 30
0.0
  0
SPLINE
  5
537
100
AcDbEntity
  8
10_ALL_FEATURES
100
AcDbSpline
 62
9
  6
CONTINUOUS
 70
0
 71
3
 72
18
 73
14
 74
0
 42
0.0000001
 43
0.0000001
 44
0.0000000001
 40
0.0
 40
0.0
 40
0.0
 40
0.0
 40
0.0066191885
 40
0.0224536646
 40
0.0474583963
 40
0.0814133165
 40
0.1240066803
 40
0.1748431889
 40
0.299259933
 40
0.4499970842
 40
0.6214130539
 40
0.8070689503
 40
1.0
 40
1.0
 40
1.0
 40
1.0
 10
140.0967591978
 20
207.8522513018
 30
0.0
 10
140.0944158651
 20
207.8545900585
 30
0.0
 10
140.0818029654
 20
207.85467852
 30
0.0
 10
140.0594321438
 20
207.8583552997
 30
0.0
 10
140.0214199817
 20
207.8598715181
 30
0.0
 10
139.970959774
 20
207.8624919515
 30
0.0
 10
139.9071774302
 20
207.8645921284
 30
0.0
 10
139.7983063893
 20
207.8676847308
 30
0.0
 10
139.6352548414
 20
207.8708926425
 30
0.0
 10
139.4119251538
 20
207.8739699839
 30
0.0
 10
139.1579382515
 20
207.8762482204
 30
0.0
 10
138.8828460087
 20
207.8776614267
 30
0.0
 10
138.6934866092
 20
207.8779768143
 30
0.0
 10
138.5969877247
 20
207.8779768803
 30
0.0
  0
SPLINE
  5
538
100
AcDbEntity
  8
10_ALL_FEATURES
100
AcDbSpline
 62
7
  6
CONTINUOUS
 70
0
 71
3
 72
11
 73
7
 74
0
 42
0.0000001
 43
0.0000001
 44
0.0000000001
 40
0.0
 40
0.0
 40
0.0
 40
0.0
 40
0.2586069804
 40
0.5088038156
 40
0.7529613558
 40
1.0
 40
1.0
 40
1.0
 40
1.0
 10
170.102849748
 20
158.7717338763
 30
0.0
 10
170.0846989402
 20
158.7626082802
 30
0.0
 10
170.0420567705
 20
158.7558378588
 30
0.0
 10
169.9861458268
 20
158.7845659757
 30
0.0
 10
169.9563644619
 20
158.8383394353
 30
0.0
 10
169.9593135635
 20
158.8793407199
 30
0.0
 10
169.9660401016
 20
158.8975446353
 30
0.0
  0
LINE
  5
539
100
AcDbEntity
  8
10_ALL_FEATURES
100
AcDbLine
 62
7
  6
CONTINUOUS
 10
169.9660401016
 20
158.8975446353
 11
170.5996530315
 21
160.611486841
  0
SPLINE
  5
53A
100
AcDbEntity
  8
10_ALL_FEATURES
100
AcDbSpline
 62
7
  6
CONTINUOUS
 70
0
 71
3
 72
11
 73
7
 74
0
 42
0.0000001
 43
0.0000001
 44
0.0000000001
 40
0.0
 40
0.0
 40
0.0
 40
0.0
 40
0.2612607722
 40
0.5119975365
 40
0.7548793911
 40
1.0
 40
1.0
 40
1.0
 40
1.0
 10
172.4981910153
 20
165.2683070524
 30
0.0
 10
172.4798301266
 20
165.2617194228
 30
0.0
 10
172.4388268945
 20
165.2597582925
 30
0.0
 10
172.3882318307
 20
165.2911424968
 30
0.0
 10
172.3627471776
 20
165.3431057535
 30
0.0
 10
172.366185096
 20
165.3814996605
 30
0.0
 10
172.3725486554
 20
165.3986595283
 30
0.0
  0
SPLINE
  5
53B
100
AcDbEntity
  8
10_ALL_FEATURES
100
AcDbSpline
 62
7
  6
CONTINUOUS
 70
0
 71
3
 72
11
 73
7
 74
0
 42
0.0000001
 43
0.0000001
 44
0.0000000001
 40
0.0
 40
0.0
 40
0.0
 40
0.0
 40
0.2642271955
 40
0.5154792612
 40
0.756954875
 40
1.0
 40
1.0
 40
1.0
 40
1.0
 10
174.7034345141
 20
171.224847199
 30
0.0
 10
174.685071514
 20
171.2200200248
 30
0.0
 10
174.6454570739
 20
171.2212964914
 30
0.0
 10
174.5987499617
 20
171.254366322
 30
0.0
 10
174.5763531179
 20
171.3048695917
 30
0.0
 10
174.5801234247
 20
171.3413214127
 30
0.0
 10
174.5862146037
 20
171.3576895441
 30
0.0
  0
LINE
  5
53C
100
AcDbEntity
  8
10_ALL_FEATURES
100
AcDbLine
 62
7
  6
CONTINUOUS
 10
202.5968977901
 20
160.611486841
 11
203.23051072
 21
158.8975446353
  0
SPLINE
  5
53D
100
AcDbEntity
  8
10_ALL_FEATURES
100
AcDbSpline
 62
7
  6
CONTINUOUS
 70
0
 71
3
 72
11
 73
7
 74
0
 42
0.0000001
 43
0.0000001
 44
0.0000000001
 40
0.0
 40
0.0
 40
0.0
 40
0.0
 40
0.2676154973
 40
0.51933542
 40
0.7592221797
 40
1.0
 40
1.0
 40
1.0
 40
1.0
 10
176.8033374745
 20
176.874152446
 30
0.0
 10
176.7850183752
 20
176.8706265821
 30
0.0
 10
176.7465341755
 20
176.874277278
 30
0.0
 10
176.7028564951
 20
176.9085565558
 30
0.0
 10
176.6828603745
 20
176.9578295158
 30
0.0
 10
176.6868782999
 20
176.9927241151
 30
0.0
 10
176.6927504416
 20
177.0084478832
 30
0.0
  0
LINE
  5
53E
100
AcDbEntity
  8
10_ALL_FEATURES
100
AcDbLine
 62
9
  6
CONTINUOUS
 10
258.8111653189
 20
165.0126670637
 11
258.7329601074
 21
165.004817492
  0
LINE
  5
53F
100
AcDbEntity
  8
10_ALL_FEATURES
100
AcDbLine
 62
9
  6
CONTINUOUS
 10
253.3286771659
 20
159.9931454776
 11
253.3451583972
 21
159.8061674322
  0
LINE
  5
540
100
AcDbEntity
  8
10_ALL_FEATURES
100
AcDbLine
 62
9
  6
CONTINUOUS
 10
254.3462521519
 20
162.7443530437
 11
254.2720247505
 21
162.73679433
  0
LINE
  5
541
100
AcDbEntity
  8
10_ALL_FEATURES
100
AcDbLine
 62
9
  6
CONTINUOUS
 10
248.8698684079
 20
157.7648113275
 11
248.885554239
 21
157.5888375178
  0
LINE
  5
542
100
AcDbEntity
  8
10_ALL_FEATURES
100
AcDbLine
 62
9
  6
CONTINUOUS
 10
249.8718743323
 20
160.4754119734
 11
249.8008680442
 21
160.4680609091
  0
LINE
  5
543
100
AcDbEntity
  8
10_ALL_FEATURES
100
AcDbLine
 62
9
  6
CONTINUOUS
 10
176.8033374745
 20
176.874152446
 11
176.8966634894
 21
176.9537441657
  0
LINE
  5
544
100
AcDbEntity
  8
10_ALL_FEATURES
100
AcDbLine
 62
9
  6
CONTINUOUS
 10
196.2574622219
 20
176.9000926993
 11
196.1703276812
 21
176.9782347554
  0
LINE
  5
545
100
AcDbEntity
  8
10_ALL_FEATURES
100
AcDbLine
 62
9
  6
CONTINUOUS
 10
176.6927504416
 20
177.0084478832
 11
176.786352142
 21
177.088137133
  0
LINE
  5
546
100
AcDbEntity
  8
10_ALL_FEATURES
100
AcDbLine
 62
9
  6
CONTINUOUS
 10
196.3696652371
 20
177.0293781793
 11
196.2822739624
 21
177.107612601
  0
LINE
  5
547
100
AcDbEntity
  8
10_ALL_FEATURES
100
AcDbLine
 62
9
  6
CONTINUOUS
 10
174.7034345141
 20
171.224847199
 11
174.7972265673
 21
171.3104060552
  0
LINE
  5
548
100
AcDbEntity
  8
10_ALL_FEATURES
100
AcDbLine
 62
9
  6
CONTINUOUS
 10
198.4931163075
 20
171.224847199
 11
198.3993242542
 21
171.3104060552
  0
SPLINE
  5
549
100
AcDbEntity
  8
10_ALL_FEATURES
100
AcDbSpline
 62
7
  6
CONTINUOUS
 70
0
 71
3
 72
11
 73
7
 74
0
 42
0.0000001
 43
0.0000001
 44
0.0000000001
 40
0.0
 40
0.0
 40
0.0
 40
0.0
 40
0.239906469
 40
0.479999467
 40
0.7322504
 40
1.0
 40
1.0
 40
1.0
 40
1.0
 10
196.3696652371
 20
177.0293781793
 30
0.0
 10
196.3745632097
 20
177.0138370175
 30
0.0
 10
196.3769241783
 20
176.979827599
 30
0.0
 10
196.3559167622
 20
176.9325861532
 30
0.0
 10
196.3127647317
 20
176.9000730638
 30
0.0
 10
196.2753294162
 20
176.8967032015
 30
0.0
 10
196.2574622219
 20
176.9000926993
 30
0.0
  0
LINE
  5
54A
100
AcDbEntity
  8
10_ALL_FEATURES
100
AcDbLine
 62
9
  6
CONTINUOUS
 10
174.5862146037
 20
171.3576895441
 11
174.6803044636
 21
171.4433642403
  0
LINE
  5
54B
100
AcDbEntity
  8
10_ALL_FEATURES
100
AcDbLine
 62
9
  6
CONTINUOUS
 10
198.6103362179
 20
171.3576895441
 11
198.516246358
 21
171.4433642403
  0
LINE
  5
54C
100
AcDbEntity
  8
10_ALL_FEATURES
100
AcDbLine
 62
9
  6
CONTINUOUS
 10
172.4981910153
 20
165.2683070524
 11
172.5941367101
 21
165.3638131137
  0
LINE
  5
54D
100
AcDbEntity
  8
10_ALL_FEATURES
100
AcDbLine
 62
9
  6
CONTINUOUS
 10
200.6983598063
 20
165.2683070524
 11
200.6024141115
 21
165.3638131137
  0
SPLINE
  5
54E
100
AcDbEntity
  8
10_ALL_FEATURES
100
AcDbSpline
 62
7
  6
CONTINUOUS
 70
0
 71
3
 72
9
 73
5
 74
0
 42
0.0000001
 43
0.0000001
 44
0.0000000001
 40
0.0
 40
0.0
 40
0.0
 40
0.0
 40
0.2300248586
 40
1.0
 40
1.0
 40
1.0
 40
1.0
 10
114.3770235278
 20
164.9360241285
 30
0.0
 10
114.3753534242
 20
164.9417784684
 30
0.0
 10
114.3702773329
 20
164.9673832603
 30
0.0
 10
114.3758152802
 20
164.9950409344
 30
0.0
 10
114.3853855141
 20
165.0126670931
 30
0.0
  0
SPLINE
  5
54F
100
AcDbEntity
  8
10_ALL_FEATURES
100
AcDbSpline
 62
7
  6
CONTINUOUS
 70
0
 71
3
 72
11
 73
7
 74
0
 42
0.0000001
 43
0.0000001
 44
0.0000000001
 40
0.0
 40
0.0
 40
0.0
 40
0.0
 40
0.2430408848
 40
0.4845083296
 40
0.7357651319
 40
1.0
 40
1.0
 40
1.0
 40
1.0
 10
198.6103362179
 20
171.3576895441
 30
0.0
 10
198.61642729
 20
171.3413217
 30
0.0
 10
198.6201975863
 20
171.3048709129
 30
0.0
 10
198.5978021772
 20
171.2543678345
 30
0.0
 10
198.5510953399
 20
171.2212968496
 30
0.0
 10
198.5114798388
 20
171.2200198852
 30
0.0
 10
198.4931163075
 20
171.224847199
 30
0.0
  0
LINE
  5
550
100
AcDbEntity
  8
10_ALL_FEATURES
100
AcDbLine
 62
9
  6
CONTINUOUS
 10
172.3725486554
 20
165.3986595283
 11
172.4688294045
 21
165.4943168662
  0
LINE
  5
551
100
AcDbEntity
  8
10_ALL_FEATURES
100
AcDbLine
 62
9
  6
CONTINUOUS
 10
200.8240021662
 20
165.3986595283
 11
200.7277214171
 21
165.4943168662
  0
LINE
  5
552
100
AcDbEntity
  8
10_ALL_FEATURES
100
AcDbLine
 62
9
  6
CONTINUOUS
 10
170.102849748
 20
158.7717338763
 11
170.2042139767
 21
158.8856221851
  0
LINE
  5
553
100
AcDbEntity
  8
10_ALL_FEATURES
100
AcDbLine
 62
9
  6
CONTINUOUS
 10
203.0937010736
 20
158.7717338763
 11
202.9923368449
 21
158.8856221851
  0
SPLINE
  5
554
100
AcDbEntity
  8
10_ALL_FEATURES
100
AcDbSpline
 62
7
  6
CONTINUOUS
 70
0
 71
3
 72
9
 73
5
 74
0
 42
0.0000001
 43
0.0000001
 44
0.0000000001
 40
0.0
 40
0.0
 40
0.0
 40
0.0
 40
0.4525350115
 40
1.0
 40
1.0
 40
1.0
 40
1.0
 10
136.3522883155
 20
188.1541763657
 30
0.0
 10
136.3672701114
 20
188.1364758589
 30
0.0
 10
136.3879440588
 20
188.0843150329
 30
0.0
 10
136.3621691261
 20
188.0305832262
 30
0.0
 10
136.3403793141
 20
188.0129127064
 30
0.0
  0
LINE
  5
555
100
AcDbEntity
  8
10_ALL_FEATURES
100
AcDbLine
 62
9
  6
CONTINUOUS
 10
169.9660401016
 20
158.8975446353
 11
170.0678026077
 21
159.0116567186
  0
LINE
  5
556
100
AcDbEntity
  8
10_ALL_FEATURES
100
AcDbLine
 62
9
  6
CONTINUOUS
 10
203.23051072
 20
158.8975446353
 11
203.1287482139
 21
159.0116567186
  0
LINE
  5
557
100
AcDbEntity
  8
10_ALL_FEATURES
100
AcDbLine
 62
7
  6
CONTINUOUS
 10
200.3900083364
 20
166.5685696169
 11
200.8240021662
 21
165.3986595283
  0
SPLINE
  5
558
100
AcDbEntity
  8
10_ALL_FEATURES
100
AcDbSpline
 62
7
  6
CONTINUOUS
 70
0
 71
3
 72
9
 73
5
 74
0
 42
0.0000001
 43
0.0000001
 44
0.0000000001
 40
0.0
 40
0.0
 40
0.0
 40
0.0
 40
0.4593075861
 40
1.0
 40
1.0
 40
1.0
 40
1.0
 10
139.4897765666
 20
184.2696635841
 30
0.0
 10
139.505056613
 20
184.2516893169
 30
0.0
 10
139.5255367575
 20
184.1990741245
 30
0.0
 10
139.4994365074
 20
184.1456219455
 30
0.0
 10
139.4778667014
 20
184.1281289961
 30
0.0
  0
SPLINE
  5
559
100
AcDbEntity
  8
10_ALL_FEATURES
100
AcDbSpline
 62
7
  6
CONTINUOUS
 70
0
 71
3
 72
11
 73
7
 74
0
 42
0.0000001
 43
0.0000001
 44
0.0000000001
 40
0.0
 40
0.0
 40
0.0
 40
0.0
 40
0.2451207803
 40
0.4879983352
 40
0.7387321312
 40
1.0
 40
1.0
 40
1.0
 40
1.0
 10
200.8240021662
 20
165.3986595283
 30
0.0
 10
200.8303657273
 20
165.3814996558
 30
0.0
 10
200.8338035413
 20
165.3431060931
 30
0.0
 10
200.8083195235
 20
165.2911432665
 30
0.0
 10
200.7577249055
 20
165.259758647
 30
0.0
 10
200.7167211859
 20
165.2617192467
 30
0.0
 10
200.6983598063
 20
165.2683070524
 30
0.0
  0
SPLINE
  5
55A
100
AcDbEntity
  8
10_ALL_FEATURES
100
AcDbSpline
 62
7
  6
CONTINUOUS
 70
0
 71
3
 72
9
 73
5
 74
0
 42
0.0000001
 43
0.0000001
 44
0.0000000001
 40
0.0
 40
0.0
 40
0.0
 40
0.0
 40
0.4650695426
 40
1.0
 40
1.0
 40
1.0
 40
1.0
 10
142.6148288073
 20
180.3866580556
 30
0.0
 10
142.6305021876
 20
180.3684760307
 30
0.0
 10
142.6511126877
 20
180.3153666587
 30
0.0
 10
142.6247081294
 20
180.2619121093
 30
0.0
 10
142.6032659693
 20
180.2445167445
 30
0.0
  0
SPLINE
  5
55B
100
AcDbEntity
  8
10_ALL_FEATURES
100
AcDbSpline
 62
9
  6
CONTINUOUS
 70
0
 71
3
 72
19
 73
15
 74
0
 42
0.0000001
 43
0.0000001
 44
0.0000000001
 40
0.0
 40
0.0
 40
0.0
 40
0.0
 40
0.0065254761
 40
0.022326341
 40
0.0473145219
 40
0.0812622681
 40
0.1238550001
 40
0.1746955815
 40
0.2333024211
 40
0.2991307272
 40
0.449894931
 40
0.6213429452
 40
0.8070334027
 40
1.0
 40
1.0
 40
1.0
 40
1.0
 10
140.5966830222
 20
208.3521751494
 30
0.0
 10
140.5932009742
 20
208.3547838821
 30
0.0
 10
140.5769672603
 20
208.3542985505
 30
0.0
 10
140.5467145759
 20
208.3584623119
 30
0.0
 10
140.4962880241
 20
208.3597157611
 30
0.0
 10
140.4289051536
 20
208.3624473205
 30
0.0
 10
140.3438989399
 20
208.3645042677
 30
0.0
 10
140.2425836741
 20
208.3666840201
 30
0.0
 10
140.1257230109
 20
208.3686585344
 30
0.0
 10
139.9422557733
 20
208.3712396715
 30
0.0
 10
139.6835386422
 20
208.3738863387
 30
0.0
 10
139.3449014581
 20
208.3761746032
 30
0.0
 10
138.9781193639
 20
208.3775844967
 30
0.0
 10
138.7256487192
 20
208.3779006849
 30
0.0
 10
138.5969877247
 20
208.3779007279
 30
0.0
  0
SPLINE
  5
55C
100
AcDbEntity
  8
10_ALL_FEATURES
100
AcDbSpline
 62
9
  6
CONTINUOUS
 70
0
 71
3
 72
19
 73
15
 74
0
 42
0.0000001
 43
0.0000001
 44
0.0000000001
 40
0.0
 40
0.0
 40
0.0
 40
0.0
 40
0.192939617
 40
0.3786005452
 40
0.5500477315
 40
0.7008221493
 40
0.7666542193
 40
0.8252666496
 40
0.8761120317
 40
0.9187147804
 40
0.9526698103
 40
0.9776675242
 40
0.9934724289
 40
1.0
 40
1.0
 40
1.0
 40
1.0
 10
234.5995630969
 20
208.3779007279
 30
0.0
 10
234.4709200951
 20
208.3779006959
 30
0.0
 10
234.2184871354
 20
208.377584619
 30
0.0
 10
233.8517432809
 20
208.3761750039
 30
0.0
 10
233.5131195341
 20
208.3738872112
 30
0.0
 10
233.2543936389
 20
208.3712408607
 30
0.0
 10
233.0709133564
 20
208.3686597996
 30
0.0
 10
232.9540432526
 20
208.3666856113
 30
0.0
 10
232.8527143844
 20
208.3645054691
 30
0.0
 10
232.7676934198
 20
208.3624490076
 30
0.0
 10
232.700292685
 20
208.3597167444
 30
0.0
 10
232.6498521032
 20
208.3584638665
 30
0.0
 10
232.6195891682
 20
208.3542981205
 30
0.0
 10
232.6033512072
 20
208.3547843965
 30
0.0
 10
232.5998677994
 20
208.3521751494
 30
0.0
  0
SPLINE
  5
55D
100
AcDbEntity
  8
10_ALL_FEATURES
100
AcDbSpline
 62
7
  6
CONTINUOUS
 70
0
 71
3
 72
11
 73
7
 74
0
 42
0.0000001
 43
0.0000001
 44
0.0000000001
 40
0.0
 40
0.0
 40
0.0
 40
0.0
 40
0.2470379038
 40
0.4911905798
 40
0.7413858322
 40
1.0
 40
1.0
 40
1.0
 40
1.0
 10
203.23051072
 20
158.8975446353
 30
0.0
 10
203.2372372343
 20
158.8793407841
 30
0.0
 10
203.2401862625
 20
158.8383400249
 30
0.0
 10
203.2104058142
 20
158.7845668975
 30
0.0
 10
203.1544952587
 20
158.7558381866
 30
0.0
 10
203.1118523762
 20
158.7626080314
 30
0.0
 10
203.0937010736
 20
158.7717338763
 30
0.0
  0
SPLINE
  5
55E
100
AcDbEntity
  8
10_ALL_FEATURES
100
AcDbSpline
 62
7
  6
CONTINUOUS
 70
0
 71
3
 72
11
 73
7
 74
0
 42
0.0000001
 43
0.0000001
 44
0.0000000001
 40
0.0
 40
0.0
 40
0.0
 40
0.0
 40
0.2517177581
 40
0.4884506137
 40
0.7314587665
 40
1.0
 40
1.0
 40
1.0
 40
1.0
 10
249.0699036467
 20
157.6110165781
 30
0.0
 10
249.0643399609
 20
157.592101244
 30
0.0
 10
249.0424114219
 20
157.5577489912
 30
0.0
 10
248.9880885876
 20
157.5320139504
 30
0.0
 10
248.9264756643
 20
157.5396183227
 30
0.0
 10
248.8951209728
 20
157.570104612
 30
0.0
 10
248.885554239
 20
157.5888375178
 30
0.0
  0
SPLINE
  5
55F
100
AcDbEntity
  8
10_ALL_FEATURES
100
AcDbSpline
 62
9
  6
CONTINUOUS
 70
0
 71
3
 72
26
 73
22
 74
0
 42
0.0000001
 43
0.0000001
 44
0.0000000001
 40
0.0
 40
0.0
 40
0.0
 40
0.0
 40
0.0279127765
 40
0.0527759185
 40
0.0630751095
 40
0.0709633043
 40
0.076746765
 40
0.0839063568
 40
0.0940035723
 40
0.1063237688
 40
0.1199427933
 40
0.1344181131
 40
0.1648345855
 40
0.1963927939
 40
0.2612166436
 40
0.3271970111
 40
0.4606897936
 40
0.595109169
 40
0.7299297943
 40
0.8649309246
 40
1.0
 40
1.0
 40
1.0
 40
1.0
 10
126.2147139825
 20
207.8779768803
 30
0.0
 10
126.1966748122
 20
207.8781685919
 30
0.0
 10
126.1626530912
 20
207.8793079272
 30
0.0
 10
126.1217505639
 20
207.8832761132
 30
0.0
 10
126.0950563198
 20
207.8905211456
 30
0.0
 10
126.0803588763
 20
207.8969959483
 30
0.0
 10
126.0740780681
 20
207.9109763116
 30
0.0
 10
126.0838807491
 20
207.9243721785
 30
0.0
 10
126.0984352322
 20
207.9360458572
 30
0.0
 10
126.1185949592
 20
207.9481709166
 30
0.0
 10
126.1418353498
 20
207.9599824454
 30
0.0
 10
126.1763508243
 20
207.9755118881
 30
0.0
 10
126.2223081623
 20
207.9936827251
 30
0.0
 10
126.2995351856
 20
208.0211409627
 30
0.0
 10
126.3995917521
 20
208.0528465425
 30
0.0
 10
126.5636989561
 20
208.1002818147
 30
0.0
 10
126.7725323316
 20
208.1547848084
 30
0.0
 10
127.0256733285
 20
208.215400815
 30
0.0
 10
127.2806398295
 20
208.2724534869
 30
0.0
 10
127.5366630906
 20
208.3266065343
 30
0.0
 10
127.7077824603
 20
208.3610472079
 30
0.0
 10
127.7934360499
 20
208.3779007279
 30
0.0
  0
SPLINE
  5
560
100
AcDbEntity
  8
10_ALL_FEATURES
100
AcDbSpline
 62
9
  6
CONTINUOUS
 70
0
 71
3
 72
12
 73
8
 74
0
 42
0.0000001
 43
0.0000001
 44
0.0000000001
 40
0.0
 40
0.0
 40
0.0
 40
0.0
 40
0.1467546419
 40
0.31369841
 40
0.5371721933
 40
0.7385810945
 40
1.0
 40
1.0
 40
1.0
 40
1.0
 10
140.7766509805
 20
208.1722346011
 30
0.0
 10
140.7797172434
 20
208.1333116768
 30
0.0
 10
140.7777634733
 20
208.0491565751
 30
0.0
 10
140.7410785014
 20
207.9095137143
 30
0.0
 10
140.6525955742
 20
207.7741503238
 30
0.0
 10
140.4999779627
 20
207.6672625491
 30
0.0
 10
140.3738668904
 20
207.6429166534
 30
0.0
 10
140.3043402991
 20
207.6447018161
 30
0.0
  0
SPLINE
  5
561
100
AcDbEntity
  8
10_ALL_FEATURES
100
AcDbSpline
 62
9
  6
CONTINUOUS
 70
0
 71
3
 72
12
 73
8
 74
0
 42
0.0000001
 43
0.0000001
 44
0.0000000001
 40
0.0
 40
0.0
 40
0.0
 40
0.0
 40
0.261339774
 40
0.4628336986
 40
0.6863060428
 40
0.8532474389
 40
1.0
 40
1.0
 40
1.0
 40
1.0
 10
232.8922105225
 20
207.6447018161
 30
0.0
 10
232.8227052994
 20
207.6429174701
 30
0.0
 10
232.6965996406
 20
207.6672675803
 30
0.0
 10
232.5439627898
 20
207.7741332471
 30
0.0
 10
232.4554720498
 20
207.9095188644
 30
0.0
 10
232.4187873832
 20
208.0491587688
 30
0.0
 10
232.4168335983
 20
208.1333124161
 30
0.0
 10
232.4198998411
 20
208.1722346011
 30
0.0
  0
SPLINE
  5
562
100
AcDbEntity
  8
10_ALL_FEATURES
100
AcDbSpline
 62
9
  6
CONTINUOUS
 70
0
 71
3
 72
26
 73
22
 74
0
 42
0.0000001
 43
0.0000001
 44
0.0000000001
 40
0.0
 40
0.0
 40
0.0
 40
0.0
 40
0.1350698341
 40
0.2700715986
 40
0.4048926278
 40
0.5393124682
 40
0.6728051911
 40
0.7387842696
 40
0.8036056208
 40
0.8351617487
 40
0.8655756928
 40
0.8800462945
 40
0.8936667898
 40
0.9059625684
 40
0.9160866825
 40
0.9232257702
 40
0.9290165858
 40
0.9369064426
 40
0.9472122408
 40
0.9720843701
 40
1.0
 40
1.0
 40
1.0
 40
1.0
 10
245.4031147717
 20
208.3779007279
 30
0.0
 10
245.4887684937
 20
208.3610469816
 30
0.0
 10
245.6598881692
 20
208.3266064834
 30
0.0
 10
245.9159116553
 20
208.2724534664
 30
0.0
 10
246.1708780314
 20
208.2154000983
 30
0.0
 10
246.4240187052
 20
208.1547847066
 30
0.0
 10
246.632851086
 20
208.1002829136
 30
0.0
 10
246.7969548062
 20
208.0528472495
 30
0.0
 10
246.8970076068
 20
208.0211425124
 30
0.0
 10
246.974229074
 20
207.9936851585
 30
0.0
 10
247.0201844717
 20
207.9755227764
 30
0.0
 10
247.0546906001
 20
207.9599868946
 30
0.0
 10
247.077927763
 20
207.948198577
 30
0.0
 10
247.0980656379
 20
207.9360571331
 30
0.0
 10
247.1126659415
 20
207.9244162756
 30
0.0
 10
247.1223990692
 20
207.9110241354
 30
0.0
 10
247.1162793015
 20
207.8969843129
 30
0.0
 10
247.1014992832
 20
207.8905610145
 30
0.0
 10
247.0748433898
 20
207.8832424426
 30
0.0
 10
247.0338975232
 20
207.879324333
 30
0.0
 10
246.9998777884
 20
207.8781685659
 30
0.0
 10
246.981836839
 20
207.8779768803
 30
0.0
  0
LINE
  5
563
100
AcDbEntity
  8
10_ALL_FEATURES
100
AcDbLine
 62
7
  6
CONTINUOUS
 10
172.3725486554
 20
165.3986595283
 11
172.8065424851
 21
166.5685696169
  0
SPLINE
  5
564
100
AcDbEntity
  8
10_ALL_FEATURES
100
AcDbSpline
 62
7
  6
CONTINUOUS
 70
0
 71
3
 72
11
 73
7
 74
0
 42
0.0000001
 43
0.0000001
 44
0.0000000001
 40
0.0
 40
0.0
 40
0.0
 40
0.0
 40
0.2389816505
 40
0.4681202791
 40
0.7146499431
 40
1.0
 40
1.0
 40
1.0
 40
1.0
 10
253.5294217741
 20
159.8290367374
 30
0.0
 10
253.5241732811
 20
159.8110092587
 30
0.0
 10
253.5039913395
 20
159.7777935949
 30
0.0
 10
253.4522870388
 20
159.7499788168
 30
0.0
 10
253.3888965309
 20
159.7544841681
 30
0.0
 10
253.3552823925
 20
159.7861645649
 30
0.0
 10
253.3451583972
 20
159.8061674322
 30
0.0
  0
SPLINE
  5
565
100
AcDbEntity
  8
10_ALL_FEATURES
100
AcDbSpline
 62
7
  6
CONTINUOUS
 70
0
 71
3
 72
11
 73
7
 74
0
 42
0.0000001
 43
0.0000001
 44
0.0000000001
 40
0.0
 40
0.0
 40
0.0
 40
0.0
 40
0.2376468066
 40
0.4636949744
 40
0.7082561441
 40
1.0
 40
1.0
 40
1.0
 40
1.0
 10
257.9867455601
 20
162.0714557811
 30
0.0
 10
257.9815248908
 20
162.0535271233
 30
0.0
 10
257.9616705602
 20
162.0205981798
 30
0.0
 10
257.9108644023
 20
161.9924491721
 30
0.0
 10
257.8473257726
 20
161.9956710833
 30
0.0
 10
257.8129172624
 20
162.0274874014
 30
0.0
 10
257.8025712789
 20
162.0479439757
 30
0.0
  0
LINE
  5
566
100
AcDbEntity
  8
10_ALL_FEATURES
100
AcDbLine
 62
7
  6
CONTINUOUS
 10
198.3116351519
 20
172.1601594483
 11
198.6103362179
 21
171.3576895441
  0
SPLINE
  5
567
100
AcDbEntity
  8
10_ALL_FEATURES
100
AcDbSpline
 62
7
  6
CONTINUOUS
 70
0
 71
3
 72
9
 73
5
 74
0
 42
0.0000001
 43
0.0000001
 44
0.0000000001
 40
0.0
 40
0.0
 40
0.0
 40
0.0
 40
0.2514416296
 40
1.0
 40
1.0
 40
1.0
 40
1.0
 10
124.0352225482
 20
157.9218471214
 30
0.0
 10
123.9748925653
 20
158.129422593
 30
0.0
 10
123.7350190225
 20
158.9549822285
 30
0.0
 10
123.4953979815
 20
159.780615232
 30
0.0
 10
123.3161741864
 20
160.3986922057
 30
0.0
  0
LINE
  5
568
100
AcDbEntity
  8
10_ALL_FEATURES
100
AcDbLine
 62
9
  6
CONTINUOUS
 10
124.1266471749
 20
157.6110165781
 11
124.1424845425
 21
157.7876235197
  0
SPLINE
  5
569
100
AcDbEntity
  8
10_ALL_FEATURES
100
AcDbSpline
 62
7
  6
CONTINUOUS
 70
0
 71
3
 72
9
 73
5
 74
0
 42
0.0000001
 43
0.0000001
 44
0.0000000001
 40
0.0
 40
0.0
 40
0.0
 40
0.0
 40
0.2668950527
 40
1.0
 40
1.0
 40
1.0
 40
1.0
 10
249.8718743331
 20
160.4754119714
 30
0.0
 10
249.8752222875
 20
160.4692979488
 30
0.0
 10
249.8854518616
 20
160.4451572998
 30
0.0
 10
249.8857090176
 20
160.4170816334
 30
0.0
 10
249.8803766352
 20
160.3986922057
 30
0.0
  0
SPLINE
  5
56A
100
AcDbEntity
  8
10_ALL_FEATURES
100
AcDbSpline
 62
7
  6
CONTINUOUS
 70
0
 71
3
 72
9
 73
5
 74
0
 42
0.0000001
 43
0.0000001
 44
0.0000000001
 40
0.0
 40
0.0
 40
0.0
 40
0.0
 40
0.2518977698
 40
1.0
 40
1.0
 40
1.0
 40
1.0
 10
119.6671290474
 20
159.8290367373
 30
0.0
 10
119.5977442927
 20
160.0673588992
 30
0.0
 10
119.3223863841
 20
161.0134918233
 30
0.0
 10
119.0473916063
 20
161.9597304349
 30
0.0
 10
118.8418802451
 20
162.6676754121
 30
0.0
  0
LINE
  5
56B
100
AcDbEntity
  8
10_ALL_FEATURES
100
AcDbLine
 62
9
  6
CONTINUOUS
 10
119.6671290474
 20
159.8290367373
 11
119.683748596
 21
160.0165034953
  0
LINE
  5
56C
100
AcDbEntity
  8
10_ALL_FEATURES
100
AcDbLine
 62
7
  6
CONTINUOUS
 10
174.5862146037
 20
171.3576895441
 11
174.8849156697
 21
172.1601594483
  0
SPLINE
  5
56D
100
AcDbEntity
  8
10_ALL_FEATURES
100
AcDbSpline
 62
9
  6
CONTINUOUS
 70
0
 71
3
 72
10
 73
6
 74
0
 42
0.0000001
 43
0.0000001
 44
0.0000000001
 40
0.0
 40
0.0
 40
0.0
 40
0.0
 40
0.5088429734
 40
0.7567383364
 40
1.0
 40
1.0
 40
1.0
 40
1.0
 10
232.0557766629
 20
208.6138823185
 30
0.0
 10
232.1555395197
 20
208.587356107
 30
0.0
 10
232.2974785633
 20
208.499999809
 30
0.0
 10
232.400741692
 20
208.3219553533
 30
0.0
 10
232.4195318679
 20
208.2215838304
 30
0.0
 10
232.4198998411
 20
208.1722346011
 30
0.0
  0
SPLINE
  5
56E
100
AcDbEntity
  8
10_ALL_FEATURES
100
AcDbSpline
 62
9
  6
CONTINUOUS
 70
0
 71
3
 72
9
 73
5
 74
0
 42
0.0000001
 43
0.0000001
 44
0.0000000001
 40
0.0
 40
0.0
 40
0.0
 40
0.0
 40
0.5264531982
 40
1.0
 40
1.0
 40
1.0
 40
1.0
 10
233.0370278673
 20
207.5774912804
 30
0.0
 10
233.0165442271
 20
207.5973376397
 30
0.0
 10
232.9721245879
 20
207.6302798491
 30
0.0
 10
232.9178582221
 20
207.6440934208
 30
0.0
 10
232.8922105225
 20
207.6447018161
 30
0.0
  0
SPLINE
  5
56F
100
AcDbEntity
  8
10_ALL_FEATURES
100
AcDbSpline
 62
9
  6
CONTINUOUS
 70
0
 71
3
 72
9
 73
5
 74
0
 42
0.0000001
 43
0.0000001
 44
0.0000000001
 40
0.0
 40
0.0
 40
0.0
 40
0.0
 40
0.2603397125
 40
1.0
 40
1.0
 40
1.0
 40
1.0
 10
247.1690133578
 20
207.8127948234
 30
0.0
 10
247.1549968106
 20
207.82302517
 30
0.0
 10
247.0986453278
 20
207.8586883128
 30
0.0
 10
247.0311337581
 20
207.8772712162
 30
0.0
 10
246.981836839
 20
207.8779768803
 30
0.0
  0
SPLINE
  5
570
100
AcDbEntity
  8
10_ALL_FEATURES
100
AcDbSpline
 62
9
  6
CONTINUOUS
 70
0
 71
3
 72
10
 73
6
 74
0
 42
0.0000001
 43
0.0000001
 44
0.0000000001
 40
0.0
 40
0.0
 40
0.0
 40
0.0
 40
0.5088429602
 40
0.7567383283
 40
1.0
 40
1.0
 40
1.0
 40
1.0
 10
141.1407741586
 20
208.6138823185
 30
0.0
 10
141.0410113023
 20
208.5873561136
 30
0.0
 10
140.8990722564
 20
208.4999998165
 30
0.0
 10
140.7958091298
 20
208.3219553584
 30
0.0
 10
140.7770189536
 20
208.2215838323
 30
0.0
 10
140.7766509805
 20
208.1722346011
 30
0.0
  0
SPLINE
  5
571
100
AcDbEntity
  8
10_ALL_FEATURES
100
AcDbSpline
 62
9
  6
CONTINUOUS
 70
0
 71
3
 72
9
 73
5
 74
0
 42
0.0000001
 43
0.0000001
 44
0.0000000001
 40
0.0
 40
0.0
 40
0.0
 40
0.0
 40
0.5264538382
 40
1.0
 40
1.0
 40
1.0
 40
1.0
 10
140.1595229542
 20
207.5774912804
 30
0.0
 10
140.1800066568
 20
207.5973376206
 30
0.0
 10
140.2244262907
 20
207.630279797
 30
0.0
 10
140.2786926372
 20
207.6440934192
 30
0.0
 10
140.3043402991
 20
207.6447018161
 30
0.0
  0
SPLINE
  5
572
100
AcDbEntity
  8
10_ALL_FEATURES
100
AcDbSpline
 62
9
  6
CONTINUOUS
 70
0
 71
3
 72
9
 73
5
 74
0
 42
0.0000001
 43
0.0000001
 44
0.0000000001
 40
0.0
 40
0.0
 40
0.0
 40
0.0
 40
0.2603397069
 40
1.0
 40
1.0
 40
1.0
 40
1.0
 10
126.027537464
 20
207.8127948234
 30
0.0
 10
126.0415540107
 20
207.82302517
 30
0.0
 10
126.0979054931
 20
207.8586883135
 30
0.0
 10
126.1654170631
 20
207.8772712163
 30
0.0
 10
126.2147139826
 20
207.8779768803
 30
0.0
  0
SPLINE
  5
573
100
AcDbEntity
  8
10_ALL_FEATURES
100
AcDbSpline
 62
7
  6
CONTINUOUS
 70
0
 71
3
 72
9
 73
5
 74
0
 42
0.0000001
 43
0.0000001
 44
0.0000000001
 40
0.0
 40
0.0
 40
0.0
 40
0.0
 40
0.2522353112
 40
1.0
 40
1.0
 40
1.0
 40
1.0
 10
115.2098052616
 20
162.0714557813
 30
0.0
 10
115.1396811932
 20
162.3122736416
 30
0.0
 10
114.8617733265
 20
163.2670384503
 30
0.0
 10
114.5842793505
 20
164.2219237376
 30
0.0
 10
114.3770235276
 20
164.9360241294
 30
0.0
  0
LINE
  5
574
100
AcDbEntity
  8
10_ALL_FEATURES
100
AcDbLine
 62
9
  6
CONTINUOUS
 10
115.2098052616
 20
162.0714557813
 11
115.2271512072
 21
162.2687952679
  0
SPLINE
  5
575
100
AcDbEntity
  8
10_ALL_FEATURES
100
AcDbSpline
 62
7
  6
CONTINUOUS
 70
0
 71
3
 72
9
 73
5
 74
0
 42
0.0000001
 43
0.0000001
 44
0.0000000001
 40
0.0
 40
0.0
 40
0.0
 40
0.0
 40
0.2699233993
 40
1.0
 40
1.0
 40
1.0
 40
1.0
 10
254.3462521526
 20
162.7443530418
 30
0.0
 10
254.3496240009
 20
162.7381669955
 30
0.0
 10
254.3597755371
 20
162.7140070287
 30
0.0
 10
254.3599830429
 20
162.6859757832
 30
0.0
 10
254.3546705765
 20
162.6676754121
 30
0.0
  0
LINE
  5
576
100
AcDbEntity
  8
10_ALL_FEATURES
100
AcDbLine
 62
9
  6
CONTINUOUS
 10
249.0540662791
 20
157.7876235197
 11
249.0699036467
 21
157.6110165781
  0
SPLINE
  5
577
100
AcDbEntity
  8
10_ALL_FEATURES
100
AcDbSpline
 62
7
  6
CONTINUOUS
 70
0
 71
3
 72
9
 73
5
 74
0
 42
0.0000001
 43
0.0000001
 44
0.0000000001
 40
0.0
 40
0.0
 40
0.0
 40
0.0
 40
0.2485472842
 40
1.0
 40
1.0
 40
1.0
 40
1.0
 10
249.8803766352
 20
160.3986922057
 30
0.0
 10
249.8208681329
 20
160.1934692607
 30
0.0
 10
249.5813778346
 20
159.3677983662
 30
0.0
 10
249.3416290835
 20
158.5422024388
 30
0.0
 10
249.1613282734
 20
157.9218471214
 30
0.0
  0
LINE
  5
578
100
AcDbEntity
  8
10_ALL_FEATURES
100
AcDbLine
 62
9
  6
CONTINUOUS
 10
249.8803766352
 20
160.3986922057
 11
249.8088239425
 21
160.3912488393
  0
SPLINE
  5
579
100
AcDbEntity
  8
10_ALL_FEATURES
100
AcDbSpline
 62
7
  6
CONTINUOUS
 70
0
 71
3
 72
9
 73
5
 74
0
 42
0.0000001
 43
0.0000001
 44
0.0000000001
 40
0.0
 40
0.0
 40
0.0
 40
0.0
 40
0.2735966056
 40
1.0
 40
1.0
 40
1.0
 40
1.0
 10
258.8111653195
 20
165.012667062
 30
0.0
 10
258.8145712095
 20
165.0063942027
 30
0.0
 10
258.8246517459
 20
164.982212328
 30
0.0
 10
258.8248095567
 20
164.9542241782
 30
0.0
 10
258.819527294
 20
164.9360241295
 30
0.0
  0
LINE
  5
57A
100
AcDbEntity
  8
10_ALL_FEATURES
100
AcDbLine
 62
9
  6
CONTINUOUS
 10
253.5128022255
 20
160.0165034954
 11
253.5294217741
 21
159.8290367374
  0
LINE
  5
57B
100
AcDbEntity
  8
10_ALL_FEATURES
100
AcDbLine
 62
7
  6
CONTINUOUS
 10
196.2557476115
 20
177.3907880447
 11
196.3696652371
 21
177.0293781793
  0
LINE
  5
57C
100
AcDbEntity
  8
10_ALL_FEATURES
100
AcDbLine
 62
7
  6
CONTINUOUS
 10
176.6927504416
 20
177.0084478832
 11
176.8877697538
 21
177.5305600954
  0
ELLIPSE
  5
57D
100
AcDbEntity
  8
10_ALL_FEATURES
100
AcDbEllipse
 62
7
  6
CONTINUOUS
 10
136.5982754108
 20
309.9154986346
 30
0.0
 11
-0.0
 21
2.4501460895
 31
0.0
 40
0.9999999536
 41
0.0
 42
6.2831853072
  0
ELLIPSE
  5
57E
100
AcDbEntity
  8
10_ALL_FEATURES
100
AcDbEllipse
 62
7
  6
CONTINUOUS
 10
236.5982754108
 20
309.9154986346
 30
0.0
 11
0.0
 21
2.4501460895
 31
0.0
 40
0.9999999536
 41
0.0
 42
6.2831853072
  0
ELLIPSE
  5
57F
100
AcDbEntity
  8
10_ALL_FEATURES
100
AcDbEllipse
 62
7
  6
CONTINUOUS
 10
136.5982754108
 20
309.9155464984
 30
0.0
 11
-0.0
 21
2.6072416884
 31
0.0
 40
0.9999999536
 41
0.0
 42
6.2831853072
  0
ELLIPSE
  5
580
100
AcDbEntity
  8
10_ALL_FEATURES
100
AcDbEllipse
 62
7
  6
CONTINUOUS
 10
236.5982754108
 20
309.9155464984
 30
0.0
 11
0.0
 21
2.6072416884
 31
0.0
 40
0.9999999536
 41
0.0
 42
6.2831853072
  0
ELLIPSE
  5
581
100
AcDbEntity
  8
10_ALL_FEATURES
100
AcDbEllipse
 62
7
  6
CONTINUOUS
 10
1073.6102104014
 20
256.369270276
 30
0.0
 11
763.6919484624
 21
4.4609874895
 31
0.0
 40
0.2443150551
 41
2.5831538405
 42
2.5839242186
  0
ELLIPSE
  5
582
100
AcDbEntity
  8
10_ALL_FEATURES
100
AcDbEllipse
 62
7
  6
CONTINUOUS
 10
136.5982754108
 20
207.8079912738
 30
0.0
 11
2.4501459758
 21
0.0
 31
0.0
 40
0.0174550657
 41
0.0
 42
6.2831853072
  0
ELLIPSE
  5
583
100
AcDbEntity
  8
10_ALL_FEATURES
100
AcDbEllipse
 62
7
  6
CONTINUOUS
 10
236.5982754108
 20
207.8079912738
 30
0.0
 11
2.4501459758
 21
-0.0
 31
0.0
 40
0.0174550657
 41
0.0
 42
6.2831853072
  0
ELLIPSE
  5
584
100
AcDbEntity
  8
10_ALL_FEATURES
100
AcDbEllipse
 62
7
  6
CONTINUOUS
 10
321.2355361931
 20
-490.6409066804
 30
0.0
 11
-230.0955813287
 21
763.6921481669
 31
0.0
 40
0.0040834711
 41
0.5550109845
 42
0.5557813625
  0
ELLIPSE
  5
585
100
AcDbEntity
  8
10_ALL_FEATURES
100
AcDbEllipse
 62
7
  6
CONTINUOUS
 10
51.9610146285
 20
-490.6409066804
 30
0.0
 11
230.0955813287
 21
763.692148167
 31
0.0
 40
0.0040834711
 41
-0.5557813625
 42
-0.5550109845
  0
ENDSEC
  0
SECTION
  2
OBJECTS
  0
DICTIONARY
  5
C
100
AcDbDictionary
280
0
281
1
  3
ACAD_GROUP
350
D
  3
ACAD_MLINESTYLE
350
17
  3
ACAD_LAYOUT
350
1A
  3
ACAD_PLOTSETTINGS
350
19
  3
ACAD_PLOTSTYLENAME
350
E
  0
DICTIONARY
  5
D
102
{ACAD_REACTORS
330
C
102
}
100
AcDbDictionary
280
0
281
1
  0
ACDBDICTIONARYWDFLT
  5
E
102
{ACAD_REACTORS
330
C
102
}
100
AcDbDictionary
281
1
  3
Normal
350
F
100
AcDbDictionaryWithDefault
340
F
  0
DICTIONARY
  5
17
102
{ACAD_REACTORS
330
C
102
}
100
AcDbDictionary
280
0
281
1
  3
Standard
350
18
  0
DICTIONARY
  5
19
102
{ACAD_REACTORS
330
C
102
}
100
AcDbDictionary
281
1
  0
DICTIONARY
  5
1A
102
{ACAD_REACTORS
330
C
102
}
100
AcDbDictionary
281
1
  3
Model
350
586
  3
Layout1
350
587
  0
ACDBPLACEHOLDER
  5
F
102
{ACAD_REACTORS
330
E
102
}
  0
MLINESTYLE
  5
18
102
{ACAD_REACTORS
330
17
102
}
100
AcDbMlineStyle
  2
STANDARD
 70
0
  3

 62
256
 51
90.0
 52
90.0
 71
2
 49
0.5
 62
256
  6
BYLAYER
 49
-0.5
 62
256
  6
BYLAYER
  0
LAYOUT
  5
586
102
{ACAD_REACTORS
330
1A
102
}
100
AcDbPlotSettings
  1

  2
none_device
  4
ISO_A2_(594.00_x_420.00_MM)
  6

 40
0.0
 41
0.0
 42
0.0
 43
0.0
 44
594.0
 45
420.0
 46
0.0
 47
0.0
 48
0.0
 49
0.0
140
0.0
141
0.0
142
1.0
143
1.0
 70
1024
 72
1
 73
0
 74
0
  7

 75
0
147
1.0
148
0.0
149
0.0
100
AcDbLayout
  1
Model
 70
0
 71
0
 10
0.0
 20
0.0
 11
594.0
 21
420.0
 12
0.0
 22
0.0
 32
0.0
 14
0.0
 24
0.0
 34
0.0
 15
0.0
 25
0.0
 35
0.0
146
0.0
 13
0.0
 23
0.0
 33
0.0
 16
1.0
 26
0.0
 36
0.0
 17
0.0
 27
1.0
 37
0.0
 76
0
330
216
345
0
346
0
  0
LAYOUT
  5
587
102
{ACAD_REACTORS
330
1A
102
}
100
AcDbPlotSettings
  1

  2
none_device
  4
ISO_A2_(594.00_x_420.00_MM)
  6

 40
0.0
 41
0.0
 42
0.0
 43
0.0
 44
594.0
 45
420.0
 46
0.0
 47
0.0
 48
0.0
 49
0.0
140
0.0
141
0.0
142
1.0
143
1.0
 70
0
 72
1
 73
0
 74
0
  7

 75
0
147
1.0
148
0.0
149
0.0
100
AcDbLayout
  1
Layout1
 70
0
 71
1
 10
0.0
 20
0.0
 11
594.0
 21
420.0
 12
0.0
 22
0.0
 32
0.0
 14
0.0
 24
0.0
 34
0.0
 15
0.0
 25
0.0
 35
0.0
146
0.0
 13
0.0
 23
0.0
 33
0.0
 16
1.0
 26
0.0
 36
0.0
 17
0.0
 27
1.0
 37
0.0
 76
0
330
217
345
0
346
0
  0
ENDSEC
  0
EOF
